• 0
  • 0
  • done
Sponsored Downloadondemand_video
  • The Lego Movie 2 The Second Part 2019 (2160p x265 10bit FS90 Joy).mkv
  • 5.3 GB
  • utr
  • Lego Movie Second 2019 2160p x265 10bit FS90 Joy mkv
  • English
  • HEVC/x265
66%

The Lego Movie 2: The Second Part (2019)

  • Action Adventure Animation Comedy Family Science Fiction Fantasy
  • It's been five years since everything was awesome and the citizens are facing a huge new threat: LEGO DUPLO® invaders from outer space, wrecking everything faster than they can rebuild.

    expand_more
    English
  • $100,000,000
  • Description

    image

    imageimage

    imageimage

    ** Media Information **

    `General

    Format                                   : Matroska

    Format version                           : Version 4 / Version 2

    File size                                : 5.25 GiB

    Duration                                 : 1 h 47 min

    Overall bit rate                         : 7 010 kb/s

    Movie name                               : The Lego Movie 2 The Second Part 2019  (2160p x265 10bit FS90 Joy)[UTR]

    Encoded date                             : UTC 2019-05-04 20:33:31

    Writing application                      : mkvmerge v33.0.0 ('A Little Bit of Madness') 64-bit

    Writing library                          : libebml v1.3.7 + libmatroska v1.5.0

    Cover                                    : Yes

    Attachments                              : cover.jpg

    Writing frontend                         : StaxRip v1.8.2.0, Encoded by JoyBell

    Video

    ID                                       : 1

    Format                                   : HEVC

    Format/Info                              : High Efficiency Video Coding

    Format profile                           : Main [email protected]@Main

    Codec ID                                 : V_MPEGH/ISO/HEVC

    Duration                                 : 1 h 47 min

    Bit rate                                 : 5 998 kb/s

    Width                                    : 3 840 pixels

    Height                                   : 1 600 pixels

    Display aspect ratio                     : 2.40:1

    Frame rate mode                          : Constant

    Frame rate                               : 23.976 (24000/1001) FPS

    Color space                              : YUV

    Chroma subsampling                       : 4:2:0

    Bit depth                                : 10 bits

    Bits/(Pixel*Frame)                       : 0.041

    Stream size                              : 4.49 GiB (86%)

    Writing library                          : x265 3.0_Au+14-c7e5878bdd31:[Windows][MSVC 1916][64 bit] 10bit

    Encoding settings                        : cpuid=1111039 / frame-threads=4 / numa-pools=16 / wpp / no-pmode / no-pme / no-psnr / ssim / log-level=2 / input-csp=1 / input-res=3840x1600 / interlace=0 / total-frames=154153 / level-idc=0 / high-tier=1 / uhd-bd=0 / ref=4 / no-allow-non-conformance / no-repeat-headers / annexb / no-aud / no-hrd / info / hash=0 / no-temporal-layers / open-gop / min-keyint=23 / keyint=250 / gop-lookahead=0 / bframes=8 / b-adapt=2 / b-pyramid / bframe-bias=40 / rc-lookahead=80 / lookahead-slices=4 / scenecut=40 / radl=0 / no-splice / no-intra-refresh / ctu=64 / min-cu-size=8 / no-rect / no-amp / max-tu-size=32 / tu-inter-depth=1 / tu-intra-depth=1 / limit-tu=0 / rdoq-level=2 / dynamic-rd=0.00 / ssim-rd / signhide / no-tskip / nr-intra=0 / nr-inter=0 / no-constrained-intra / strong-intra-smoothing / max-merge=3 / limit-refs=3 / limit-modes / me=3 / subme=3 / merange=57 / temporal-mvp / weightp / no-weightb / no-analyze-src-pics / no-deblock / no-sao / no-sao-non-deblock / rd=4 / early-skip / rskip / no-fast-intra / no-tskip-fast / no-cu-lossless / no-b-intra / splitrd-skip / rdpenalty=0 / psy-rd=2.20 / psy-rdoq=1.15 / no-rd-refine / no-lossless / cbqpoffs=0 / crqpoffs=0 / rc=abr / bitrate=6000 / qcomp=0.50 / qpstep=4 / stats-write=0 / stats-read=2 / cplxblur=20.0 / qblur=0.5 / ipratio=1.40 / pbratio=1.30 / aq-mode=3 / aq-strength=0.80 / cutree / zone-count=0 / no-strict-cbr / qg-size=32 / no-rc-grain / qpmax=69 / qpmin=0 / no-const-vbv / sar=0 / overscan=0 / videoformat=5 / range=0 / colorprim=2 / transfer=2 / colormatrix=2 / chromaloc=0 / display-window=0 / max-cll=0,0 / min-luma=0 / max-luma=1023 / log2-max-poc-lsb=8 / vui-timing-info / vui-hrd-info / slices=1 / no-opt-qp-pps / no-opt-ref-list-length-pps / multi-pass-opt-rps / scenecut-bias=0.05 / no-opt-cu-delta-qp / no-aq-motion / no-hdr / no-hdr-opt / no-dhdr10-opt / no-idr-recovery-sei / analysis-reuse-level=10 / scale-factor=0 / refine-intra=0 / refine-inter=0 / refine-mv=0 / refine-ctu-distortion=0 / no-limit-sao / ctu-info=0 / no-lowpass-dct / refine-analysis-type=0 / copy-pic=1 / max-ausize-factor=1.0 / no-dynamic-refine / no-single-sei / no-hevc-aq / no-svt / qp-adaptation-range=1.00

    Default                                  : Yes

    Forced                                   : No

    Audio #1

    ID                                       : 2

    Format                                   : AAC

    Format/Info                              : Advanced Audio Codec

    Format profile                           : LC

    Codec ID                                 : A_AAC

    Duration                                 : 1 h 47 min

    Bit rate                                 : 500 kb/s

    Channel(s)                               : 8 channels

    Channel positions                        : Front: L C R, Side: L R, Back: L R, LFE

    Sampling rate                            : 48.0 kHz

    Frame rate                               : 46.875 FPS (1024 spf)

    Compression mode                         : Lossy

    Delay relative to video                  : 9 ms

    Stream size                              : 384 MiB (7%)

    Language                                 : English

    Default                                  : No

    Forced                                   : No

    Audio #2

    ID                                       : 3

    Format                                   : AAC

    Format/Info                              : Advanced Audio Codec

    Format profile                           : HE-AAC / LC

    Codec ID                                 : A_AAC

    Duration                                 : 1 h 47 min

    Bit rate                                 : 39.2 kb/s

    Channel(s)                               : 2 channels

    Channel positions                        : Front: L R

    Sampling rate                            : 48.0 kHz / 24.0 kHz

    Frame rate                               : 23.438 FPS (1024 spf)

    Compression mode                         : Lossy

    Delay relative to video                  : 31 ms

    Stream size                              : 30.0 MiB (1%)

    Title                                    : Commentary

    Language                                 : English

    Default                                  : No

    Forced                                   : No

    Audio #3

    ID                                       : 4

    Format                                   : AAC

    Format/Info                              : Advanced Audio Codec

    Format profile                           : LC

    Codec ID                                 : A_AAC

    Duration                                 : 1 h 47 min

    Bit rate                                 : 85.9 kb/s

    Channel(s)                               : 2 channels

    Channel positions                        : Front: L R

    Sampling rate                            : 48.0 kHz

    Frame rate                               : 46.875 FPS (1024 spf)

    Compression mode                         : Lossy

    Delay relative to video                  : 9 ms

    Stream size                              : 65.9 MiB (1%)

    Language                                 : French

    Default                                  : No

    Forced                                   : No

    Audio #4

    ID                                       : 5

    Format                                   : AAC

    Format/Info                              : Advanced Audio Codec

    Format profile                           : LC

    Codec ID                                 : A_AAC

    Duration                                 : 1 h 47 min

    Bit rate                                 : 80.8 kb/s

    Channel(s)                               : 2 channels

    Channel positions                        : Front: L R

    Sampling rate                            : 48.0 kHz

    Frame rate                               : 46.875 FPS (1024 spf)

    Compression mode                         : Lossy

    Delay relative to video                  : 9 ms

    Stream size                              : 61.9 MiB (1%)

    Language                                 : German

    Default                                  : No

    Forced                                   : No

    Audio #5

    ID                                       : 6

    Format                                   : AAC

    Format/Info                              : Advanced Audio Codec

    Format profile                           : LC

    Codec ID                                 : A_AAC

    Duration                                 : 1 h 47 min

    Bit rate                                 : 86.4 kb/s

    Channel(s)                               : 2 channels

    Channel positions                        : Front: L R

    Sampling rate                            : 48.0 kHz

    Frame rate                               : 46.875 FPS (1024 spf)

    Compression mode                         : Lossy

    Delay relative to video                  : 9 ms

    Stream size                              : 66.3 MiB (1%)

    Language                                 : Spanish

    Default                                  : No

    Forced                                   : No

    Audio #6

    ID                                       : 7

    Format                                   : AAC

    Format/Info                              : Advanced Audio Codec

    Format profile                           : LC

    Codec ID                                 : A_AAC

    Duration                                 : 1 h 47 min

    Bit rate                                 : 86.8 kb/s

    Channel(s)                               : 2 channels

    Channel positions                        : Front: L R

    Sampling rate                            : 48.0 kHz

    Frame rate                               : 46.875 FPS (1024 spf)

    Compression mode                         : Lossy

    Delay relative to video                  : 9 ms

    Stream size                              : 66.5 MiB (1%)

    Language                                 : Italian

    Default                                  : No

    Forced                                   : No

    Subtitle #1

    ID                                       : 8

    Format                                   : UTF-8

    Codec ID                                 : S_TEXT/UTF8

    Codec ID/Info                            : UTF-8 Plain Text

    Duration                                 : 1 h 38 min

    Bit rate                                 : 81 b/s

    Count of elements                        : 1930

    Stream size                              : 58.8 KiB (0%)

    Language                                 : English

    Default                                  : No

    Forced                                   : No

    Subtitle #2

    ID                                       : 9

    Format                                   : UTF-8

    Codec ID                                 : S_TEXT/UTF8

    Codec ID/Info                            : UTF-8 Plain Text

    Duration                                 : 1 h 38 min

    Bit rate                                 : 94 b/s

    Count of elements                        : 2137

    Stream size                              : 67.5 KiB (0%)

    Language                                 : English

    Default                                  : No

    Forced                                   : No

    Subtitle #3

    ID                                       : 10

    Format                                   : VobSub

    Muxing mode                              : zlib

    Codec ID                                 : S_VOBSUB

    Codec ID/Info                            : Picture based subtitle format used on DVDs

    Duration                                 : 1 h 38 min

    Bit rate                                 : 16.4 kb/s

    Count of elements                        : 2143

    Stream size                              : 11.5 MiB (0%)

    Language                                 : English

    Default                                  : No

    Forced                                   : No

    Subtitle #4

    ID                                       : 11

    Format                                   : VobSub

    Muxing mode                              : zlib

    Codec ID                                 : S_VOBSUB

    Codec ID/Info                            : Picture based subtitle format used on DVDs

    Duration                                 : 1 h 46 min

    Bit rate                                 : 10.2 kb/s

    Count of elements                        : 1709

    Stream size                              : 7.74 MiB (0%)

    Language                                 : French

    Default                                  : No

    Forced                                   : No

    Subtitle #5

    ID                                       : 12

    Format                                   : VobSub

    Muxing mode                              : zlib

    Codec ID                                 : S_VOBSUB

    Codec ID/Info                            : Picture based subtitle format used on DVDs

    Duration                                 : 1 h 46 min

    Bit rate                                 : 14.9 kb/s

    Count of elements                        : 1773

    Stream size                              : 11.4 MiB (0%)

    Language                                 : German

    Default                                  : No

    Forced                                   : No

    Subtitle #6

    ID                                       : 13

    Format                                   : VobSub

    Muxing mode                              : zlib

    Codec ID                                 : S_VOBSUB

    Codec ID/Info                            : Picture based subtitle format used on DVDs

    Duration                                 : 1 h 46 min

    Bit rate                                 : 14.9 kb/s

    Count of elements                        : 2181

    Stream size                              : 11.3 MiB (0%)

    Language                                 : Italian

    Default                                  : No

    Forced                                   : No

    Subtitle #7

    ID                                       : 14

    Format                                   : VobSub

    Muxing mode                              : zlib

    Codec ID                                 : S_VOBSUB

    Codec ID/Info                            : Picture based subtitle format used on DVDs

    Duration                                 : 1 h 46 min

    Bit rate                                 : 12.6 kb/s

    Count of elements                        : 1927

    Stream size                              : 9.56 MiB (0%)

    Language                                 : Spanish

    Default                                  : No

    Forced                                   : No

    Subtitle #8

    ID                                       : 15

    Format                                   : VobSub

    Muxing mode                              : zlib

    Codec ID                                 : S_VOBSUB

    Codec ID/Info                            : Picture based subtitle format used on DVDs

    Duration                                 : 1 h 46 min

    Bit rate                                 : 11.8 kb/s

    Count of elements                        : 1903

    Stream size                              : 8.98 MiB (0%)

    Language                                 : Croatian

    Default                                  : No

    Forced                                   : No

    Subtitle #9

    ID                                       : 16

    Format                                   : VobSub

    Muxing mode                              : zlib

    Codec ID                                 : S_VOBSUB

    Codec ID/Info                            : Picture based subtitle format used on DVDs

    Duration                                 : 1 h 46 min

    Bit rate                                 : 11.2 kb/s

    Count of elements                        : 1901

    Stream size                              : 8.57 MiB (0%)

    Language                                 : Czech

    Default                                  : No

    Forced                                   : No

    Subtitle #10

    ID                                       : 17

    Format                                   : VobSub

    Muxing mode                              : zlib

    Codec ID                                 : S_VOBSUB

    Codec ID/Info                            : Picture based subtitle format used on DVDs

    Duration                                 : 1 h 46 min

    Bit rate                                 : 10.6 kb/s

    Count of elements                        : 1800

    Stream size                              : 8.06 MiB (0%)

    Language                                 : Danish

    Default                                  : No

    Forced                                   : No

    Subtitle #11

    ID                                       : 18

    Format                                   : VobSub

    Muxing mode                              : zlib

    Codec ID                                 : S_VOBSUB

    Codec ID/Info                            : Picture based subtitle format used on DVDs

    Duration                                 : 1 h 46 min

    Bit rate                                 : 11.8 kb/s

    Count of elements                        : 1876

    Stream size                              : 9.00 MiB (0%)

    Language                                 : Finnish

    Default                                  : No

    Forced                                   : No

    Subtitle #12

    ID                                       : 19

    Format                                   : VobSub

    Muxing mode                              : zlib

    Codec ID                                 : S_VOBSUB

    Codec ID/Info                            : Picture based subtitle format used on DVDs

    Duration                                 : 1 h 46 min

    Bit rate                                 : 12.2 kb/s

    Count of elements                        : 1932

    Stream size                              : 9.31 MiB (0%)

    Language                                 : Greek

    Default                                  : No

    Forced                                   : No

    Subtitle #13

    ID                                       : 20

    Format                                   : VobSub

    Muxing mode                              : zlib

    Codec ID                                 : S_VOBSUB

    Codec ID/Info                            : Picture based subtitle format used on DVDs

    Duration                                 : 1 h 46 min

    Bit rate                                 : 11.8 kb/s

    Count of elements                        : 1870

    Stream size                              : 8.97 MiB (0%)

    Language                                 : Norwegian Bokmal

    Default                                  : No

    Forced                                   : No

    Subtitle #14

    ID                                       : 21

    Format                                   : VobSub

    Muxing mode                              : zlib

    Codec ID                                 : S_VOBSUB

    Codec ID/Info                            : Picture based subtitle format used on DVDs

    Duration                                 : 1 h 46 min

    Bit rate                                 : 11.1 kb/s

    Count of elements                        : 1875

    Stream size                              : 8.45 MiB (0%)

    Language                                 : Polish

    Default                                  : No

    Forced                                   : No

    Subtitle #15

    ID                                       : 22

    Format                                   : VobSub

    Muxing mode                              : zlib

    Codec ID                                 : S_VOBSUB

    Codec ID/Info                            : Picture based subtitle format used on DVDs

    Duration                                 : 1 h 46 min

    Bit rate                                 : 9 924 b/s

    Count of elements                        : 1768

    Stream size                              : 7.56 MiB (0%)

    Language                                 : Slovak

    Default                                  : No

    Forced                                   : No

    Subtitle #16

    ID                                       : 23

    Format                                   : VobSub

    Muxing mode                              : zlib

    Codec ID                                 : S_VOBSUB

    Codec ID/Info                            : Picture based subtitle format used on DVDs

    Duration                                 : 1 h 46 min

    Bit rate                                 : 11.0 kb/s

    Count of elements                        : 1436

    Stream size                              : 8.34 MiB (0%)

    Language                                 : Slovenian

    Default                                  : No

    Forced                                   : No

    Subtitle #17

    ID                                       : 24

    Format                                   : VobSub

    Muxing mode                              : zlib

    Codec ID                                 : S_VOBSUB

    Codec ID/Info                            : Picture based subtitle format used on DVDs

    Duration                                 : 1 h 46 min

    Bit rate                                 : 11.6 kb/s

    Count of elements                        : 1917

    Stream size                              : 8.87 MiB (0%)

    Language                                 : Swedish

    Default                                  : No

    Forced                                   : No

    Subtitle #18

    ID                                       : 25

    Format                                   : VobSub

    Muxing mode                              : zlib

    Codec ID                                 : S_VOBSUB

    Codec ID/Info                            : Picture based subtitle format used on DVDs

    Duration                                 : 1 h 46 min

    Bit rate                                 : 13.1 kb/s

    Count of elements                        : 1904

    Stream size                              : 9.96 MiB (0%)

    Language                                 : Turkish

    Default                                  : No

    Forced                                   : No

    Subtitle #19

    ID                                       : 26

    Format                                   : VobSub

    Muxing mode                              : zlib

    Codec ID                                 : S_VOBSUB

    Codec ID/Info                            : Picture based subtitle format used on DVDs

    Duration                                 : 1 h 24 min

    Bit rate                                 : 172 b/s

    Count of elements                        : 21

    Stream size                              : 106 KiB (0%)

    Language                                 : French

    Default                                  : No

    Forced                                   : No

    Subtitle #20

    ID                                       : 27

    Format                                   : VobSub

    Muxing mode                              : zlib

    Codec ID                                 : S_VOBSUB

    Codec ID/Info                            : Picture based subtitle format used on DVDs

    Duration                                 : 1 h 24 min

    Bit rate                                 : 132 b/s

    Count of elements                        : 16

    Stream size                              : 81.6 KiB (0%)

    Language                                 : German

    Default                                  : No

    Forced                                   : No

    Subtitle #21

    ID                                       : 28

    Format                                   : UTF-8

    Codec ID                                 : S_TEXT/UTF8

    Codec ID/Info                            : UTF-8 Plain Text

    Duration                                 : 1 h 45 min

    Bit rate                                 : 124 b/s

    Count of elements                        : 2105

    Stream size                              : 96.0 KiB (0%)

    Language                                 : Arabic

    Default                                  : No

    Forced                                   : No

    Subtitle #22

    ID                                       : 29

    Format                                   : UTF-8

    Codec ID                                 : S_TEXT/UTF8

    Codec ID/Info                            : UTF-8 Plain Text

    Duration                                 : 1 h 34 min

    Bit rate                                 : 134 b/s

    Count of elements                        : 1868

    Stream size                              : 92.8 KiB (0%)

    Language                                 : Persian

    Default                                  : No

    Forced                                   : No

    Subtitle #23

    ID                                       : 30

    Format                                   : UTF-8

    Codec ID                                 : S_TEXT/UTF8

    Codec ID/Info                            : UTF-8 Plain Text

    Duration                                 : 1 h 46 min

    Bit rate                                 : 81 b/s

    Count of elements                        : 1971

    Stream size                              : 63.4 KiB (0%)

    Language                                 : Italian

    Default                                  : No

    Forced                                   : No

    Subtitle #24

    ID                                       : 31

    Format                                   : UTF-8

    Codec ID                                 : S_TEXT/UTF8

    Codec ID/Info                            : UTF-8 Plain Text

    Duration                                 : 1 h 46 min

    Bit rate                                 : 184 b/s

    Count of elements                        : 2146

    Stream size                              : 144 KiB (0%)

    Language                                 : Thai

    Default                                  : No

    Forced                                   : No

    Subtitle #25

    ID                                       : 32

    Format                                   : UTF-8

    Codec ID                                 : S_TEXT/UTF8

    Codec ID/Info                            : UTF-8 Plain Text

    Duration                                 : 1 h 46 min

    Bit rate                                 : 127 b/s

    Count of elements                        : 2154

    Stream size                              : 99.6 KiB (0%)

    Language                                 : Vietnamese

    Default                                  : No

    Forced                                   : No

    Menu

    00:00:00.000                             : en:Chapter 01

    00:04:15.880                             : en:Chapter 02

    00:12:34.962                             : en:Chapter 03

    00:15:09.950                             : en:Chapter 04

    00:21:57.524                             : en:Chapter 05

    00:29:50.330                             : en:Chapter 06

    00:36:22.346                             : en:Chapter 07

    00:44:47.685                             : en:Chapter 08

    00:50:50.213                             : en:Chapter 09

    00:57:05.255                             : en:Chapter 10

    01:01:07.080                             : en:Chapter 11

    01:09:48.058                             : en:Chapter 12

    01:17:31.897                             : en:Chapter 13

    01:21:58.079                             : en:Chapter 14

    01:26:49.537                             : en:Chapter 15

    01:34:05.890                             : en:Chapter 16

    01:38:30.446                             : en:Chapter 17

    `

    ** Source Information **

    `Release: The.Lego.Movie.2.The.Second.Part.2019.2160p.BluRay.REMUX.HEVC.DTS-HD.TrueHD.7.1.Atmos-FGT.mkv (54.10 GBs)

    `

    `image

    Note From UTR

    We have no issue with individuals posting or re-uploading our torrents on a platform we aren't on. However, if this is something you'd like to do, please do so in a 'as-is' format. We ask that you do not create a new torrent, include all descriptions you see above including the UTR logo, tags, notes and screenshots. If you'd like to become a permanent poster on a website we don't post to, feel free to get in contact with a UniTeam member.

    If possible please donate: BTC 1QA5fum5AyXvWzdVCkQzUNvw3Ef15fHRaR`


    More at ibit.to
    And ibit.uno
    And ibit.ws

    Reviews

    Certainly not as good as the first one, but to be fair, that came completely out of left field, with _The Second Part_ there was actually some degree of expectation. Very much a kids' film, but there's still a little bit of that broader appeal and deeper meaning that was found in the first one. Amazing from what amounts to a 107 minute ad for branded plastic blocks. _Final rating:★★★ - I liked it. Would personally recommend you give it a go._

    Comments

    Files

    The Lego Movie 2 The Second Part 2019 (2160p x265 10bit FS90 Joy).mkv 5.3 GB

    Stream

    Downloading Seeding The Lego Movie 2 The Second Part 2019 (2160p x265 10bit FS90 Joy).mkv from to 0 peers.
    of
    0 b/s / ↗0 b/s