• 4
  • 0
  • 24
  • done
Sponsored Downloadondemand_video
  • The Legacy Of A Whitetail Deer Hunter 2018 720p HDRip x264 5.1 +
  • 776 MB
  • basicssom
  • Legacy Whitetail Deer Hunter 2018 720p HDRip x264
  • English
  • HD - Movies
53%

The Legacy of a Whitetail Deer Hunter (2018)

  • Comedy
  • A star of hunting videos strives to bond with his 12-year-old son on a wilderness trip but learns familial connections can't be forced.

    expand_more
    English

    Description

    The Legacy Of A Whitetail Deer Hunter 2018 Movies 720p HDRip x264 5.1 with Sample ☻rDX☻

    ===============================================================================================

    SCREEN SHOTS:

    image

    or

    http://iphonehosting.eu/2018/7/dongle/1.html

    File size : 768 MiB

    Duration : 1 h 23 min

    Overall bit rate : 1 290 kb/s

    Movie name : The Legacy Of A Whitetail Deer Hunter 2018 Movies 720p HDRip x264 5.1 ☻rDX☻

    Video

    ID : 2

    Format : AVC

    Format/Info : Advanced Video Codec

    Format profile : [email protected]
    Format settings, CABAC : Yes

    Format settings, ReFrames : 4 frames

    Codec ID : V_MPEG4/ISO/AVC

    Duration : 1 h 23 min

    Bit rate : 905 kb/s

    Width : 1 280 pixels

    Height : 532 pixels

    Display aspect ratio : 2.40:1

    Frame rate mode : Constant

    Frame rate : 23.976 (24000/1001) FPS

    Color space : YUV

    Chroma subsampling : 4:2:0

    Bit depth : 8 bits

    Scan type : Progressive

    Bits/(Pixel*Frame) : 0.055

    Stream size : 524 MiB (68%)

    Title : ☻rDX☻

    Writing library : x264

    Audio

    ID : 1

    Format : AC-3

    Format/Info : Audio Coding 3

    Mode extension : CM (complete main)

    Format settings, Endianness : Big

    Codec ID : A_AC3

    Duration : 1 h 23 min

    Bit rate mode : Constant

    Bit rate : 384 kb/s

    Channel(s) : 6 channels

    Channel positions : Front: L C R, Side: L R, LFE

    Sampling rate : 48.0 kHz

    Frame rate : 31.250 FPS (1536 spf)

    Bit depth : 16 bits

    Compression mode : Lossy

    Delay relative to video : -21 ms

    Stream size : 229 MiB (30%)

    Title : ☻rDX☻

    Default : Yes

    Forced : No

    image

    IMDB : https://www.imdb.com/title/tt4762824


    More at ibit.to
    And ibit.uno
    And ibit.ws

    Reviews

    Comments

    Files

    The Legacy Of A Whitetail Deer Hunter 2018 Movies 720p HDRip x264 5.1 with Sample ☻rDX☻/Sample ~ The Legacy Of A Whitetail Deer Hunter 2018 Movies 720 8.6 MB
    The Legacy Of A Whitetail Deer Hunter 2018 Movies 720p HDRip x264 5.1 with Sample ☻rDX☻/The Legacy Of A Whitetail Deer Hunter 2018 Movies 720p HDRip x 768 MB

    Stream

    Downloading Seeding The Legacy Of A Whitetail Deer Hunter 2018 720p HDRip x264 5.1 + from to 0 peers.
    of
    0 b/s / ↗0 b/s