• 1
  • 0
  • 55
Sponsored Downloadondemand_video
54%

The Hurricane Heist (2018)

  • Action Crime Thriller
  • Thieves attempt a massive heist against the U.S. Treasury as a Category 5 hurricane approaches one of its Mint facilities.

    expand_more
    English
  • $35,000,000
  • Description

    https://www.gopisahi.pw/
    image
    Format : Matroska

    Format version : Version 4 / Version 2

    File size : 729 MiB

    Duration : 1 h 43 min

    Overall bit rate : 988 kb/s

    Movie name : The Hurricane Heist 2018 GOPISAHI

    Video

    Format : AVC

    Format/Info : Advanced Video Codec

    Codec ID : V_MPEG4/ISO/AVC

    Duration : 1 h 43 min

    Bit rate : 699 kb/s

    Width : 1 280 pixels

    Height : 528 pixels

    Display aspect ratio : 2.40:1

    Frame rate mode : Constant

    Frame rate : 23.976 (24000/1001) FPS

    Color space : YUV

    Chroma subsampling : 4:2:0

    Bit depth : 8 bits

    Scan type : Progressive

    Bits/(Pixel*Frame) : 0.043

    Stream size : 515 MiB (71%)

    Title : GOPISAHI

    Writing library : x264 core 157 r2935 545de2f

    Audio #1

    Format : AAC

    Duration : 1 h 43 min

    Bit rate : 192 kb/s

    Channel(s) : 6 channels

    Channel positions : Front: L C R, Side: C, Back: L R

    Sampling rate : 48.0 kHz

    Frame rate : 46.875 FPS (1024 SPF)

    Compression mode : Lossy

    Delay relative to video : -62 ms

    Stream size : 140 MiB (19%)

    Title : GOPISAHI

    Language : Hindi

    Audio #2

    Format : AAC

    Format/Info : Advanced Audio Codec

    Duration : 1 h 43 min

    Bit rate : 96.0 kb/s

    Channel(s) : 2 channels

    Channel positions : Front: L R

    Sampling rate : 48.0 kHz

    Frame rate : 46.875 FPS (1024 SPF)

    Compression mode : Lossy

    Delay relative to video : -63 ms

    Stream size : 71.0 MiB (10%)

    Title : GOPISAHI

    Language : English

    Text

    Language : English

    image
    image
    image


    More at ibit.to
    And ibit.uno
    And ibit.ws

    Reviews

    Unlikely to win any awards but a decent, if run-of-the mill, heist plot. Clever use of weather at times. Sometimes over-the-top.

    Comments

    Files

    The Hurricane Heist 2018 x264 720p Esub BluRay Dual Audio English Hindi GOPISAHI.mkv 729 MB

    Stream

    Downloading Seeding The Hurricane Heist 2018 x264 720p Esub BluRay Dual Audio English Hindi GOPISAHI from to 0 peers.
    of
    0 b/s / ↗0 b/s