• 1
  • 0
  • 5,857
Sponsored Downloadondemand_video
54%

The Hurricane Heist (2018)

  • Action Crime Thriller
  • Thieves attempt a massive heist against the U.S. Treasury as a Category 5 hurricane approaches one of its Mint facilities.

    expand_more
    English
  • $35,000,000
  • Description

    https://movcr.com

    The Hurricane Heist (2018) 720p - BluRay - x264 - Line Auds [Hindi + Tamil + Eng] - ESub - MovCr
    image

    Video

    ID : 1

    Format : AVC

    Format/Info : Advanced Video Codec

    Format profile : [email protected]
    Format settings, CABAC : Yes

    Format settings, ReFrames : 8 frames

    Codec ID : V_MPEG4/ISO/AVC

    Duration : 1 h 43 min

    Bit rate : 1 190 kb/s

    Width : 1 280 pixels

    Height : 536 pixels

    Display aspect ratio : 2.40:1

    Frame rate mode : Constant

    Frame rate : 23.976 (24000/1001) FPS

    Color space : YUV

    Chroma subsampling : 4:2:0

    Bit depth : 8 bits

    Scan type : Progressive

    Bits/(Pixel*Frame) : 0.072

    Stream size : 877 MiB (80%)

    Title : www.MovCr.com

    Writing library : x264 core 155 r2893 b00bcaf

    Encoding settings : cabac=1 / ref=8 / deblock=1:0:0 / analyse=0x3:0x133 / me=umh / subme=9 / psy=1 / psyrd=1.00:0.00 / mixedref=1 / merange=16 / chromame=1 / trellis=2 / 8x8dct=1 / cqm=0 / deadzone=21,11 / fastpskip=1 / chromaqpoffset=-2 / threads=17 / lookaheadthreads=1 / slicedthreads=0 / nr=0 / decimate=1 / interlaced=0 / bluraycompat=0 / constrainedintra=0 / bframes=3 / bpyramid=2 / badapt=2 / bbias=0 / direct=3 / weightb=1 / opengop=0 / weightp=2 / keyint=240 / keyintmin=24 / scenecut=40 / intrarefresh=0 / rclookahead=60 / rc=2pass / mbtree=1 / bitrate=1190 / ratetol=1.0 / qcomp=0.60 / qpmin=0 / qpmax=69 / qpstep=4 / cplxblur=20.0 / qblur=0.5 / vbvmaxrate=62500 / vbvbufsize=78125 / nalhrd=none / filler=0 / ipratio=1.40 / aq=1:1.00

    Language : English

    Default : Yes

    Forced : No

    Color range : Limited

    Color primaries : BT.709

    Transfer characteristics : BT.709

    Matrix coefficients : BT.709

    Audio #1

    ID : 2

    Format : MPEG Audio

    Format version : Version 1

    Format profile : Layer 3

    Mode : Joint stereo

    Mode extension : MS Stereo

    Codec ID : A_MPEG/L3

    Codec ID/Hint : MP3

    Duration : 1 h 43 min

    Bit rate mode : Variable

    Bit rate : 96.0 kb/s

    Channel(s) : 2 channels

    Sampling rate : 48.0 kHz

    Frame rate : 41.667 FPS (1152 spf)

    Compression mode : Lossy

    Stream size : 71.8 MiB (7%)

    Title : www.MovCr.com

    Writing library : LAME3.99r

    Encoding settings : -m j -V 4 -q 3 -lowpass 15.1 --abr 96

    Language : Hindi

    Default : Yes

    Forced : No

    Audio #2

    ID : 3

    Format : MPEG Audio

    Format version : Version 1

    Format profile : Layer 3

    Mode : Joint stereo

    Mode extension : MS Stereo

    Codec ID : A_MPEG/L3

    Codec ID/Hint : MP3

    Duration : 1 h 43 min

    Bit rate mode : Variable

    Bit rate : 96.0 kb/s

    Channel(s) : 2 channels

    Sampling rate : 48.0 kHz

    Frame rate : 41.667 FPS (1152 spf)

    Compression mode : Lossy

    Stream size : 68.5 MiB (6%)

    Title : www.MovCr.com

    Writing library : LAME3.99r

    Encoding settings : -m j -V 4 -q 3 -lowpass 15.1 --abr 96

    Language : Tamil

    Default : No

    Forced : No

    Audio #3

    ID : 4

    Format : AAC

    Format/Info : Advanced Audio Codec

    Format profile : HE-AAC / LC

    Codec ID : A_AAC

    Duration : 1 h 43 min

    Bit rate : 100.0 kb/s

    Channel(s) : 2 channels

    Channel positions : Front: L R

    Sampling rate : 48.0 kHz / 24.0 kHz

    Frame rate : 23.438 FPS (1024 spf)

    Compression mode : Lossy

    Delay relative to video : 31 ms

    Stream size : 73.7 MiB (7%)

    Title : www.MovCr.com

    Language : English

    Default : No

    Forced : No

    Text

    ID : 5

    Format : UTF-8

    Codec ID : S_TEXT/UTF8

    Codec ID/Info : UTF-8 Plain Text

    Duration : 1 h 42 min

    Bit rate : 53 b/s

    Count of elements : 1251

    Stream size : 39.8 KiB (0%)

    Title : www.MovCr.com

    Language : English

    Default : Yes

    Forced : No

    imageimageimage


    More at ibit.to
    And ibit.uno
    And ibit.ws

    Reviews

    Unlikely to win any awards but a decent, if run-of-the mill, heist plot. Clever use of weather at times. Sometimes over-the-top.

    Comments

    1 year ago

    thanks

    Files

    [MovCr.com] - The Hurricane Heist (2018) 720p - BluRay - x264 - Line Auds [Hindi + Tamil + Eng] - ESub - MovCr.mkv 1.1 GB

    Stream

    Downloading Seeding The Hurricane Heist (2018) 720p - BluRay - x264 - Line Auds [Hindi + Tamil + Eng] - ESub - MovCr from to 0 peers.
    of
    0 b/s / ↗0 b/s