• 0
  • 1
  • done
Anonymous Downloadondemand_video
  • The Hot Zone (Season 1) WEB-DLRip LostFilm
  • 692 MB
  • wentworth_miller
  • Hot Zone Season WEB DLRip LostFilm
  • Зарубежные сериалы
Warning! Use a VPN When Downloading Torrents!
Your IP Address is ,
Your Internet Provider can see when you download torrents! Hide your IP ADDRESS with a VPN
We strongly recommend Trust.Zone VPN to hide your torrenting. It's FREE!
DOWNLOAD VPN
61%

The Hot Zone: Season 1(2019)

  • 1
  • Drama
  • Heroic U.S. Army scientist Dr. Nancy Jaax, working with a secret military specialized team, puts her life on the line to head off an Ebola outbreak before it spread to the human population.

    expand_more
    English
    • 1
    • 2
    • 3
    • 4
    • 5
    • 6

    Description

    Зона заражения | The Hot Zone


    image

    Год выпуска : 2019

    Страна : image США

    Жанр : Фантастика, триллер, драма

    Продолжительность : ~ 00:47:00


    Перевод : Профессиональный (многоголосый закадровый) |

    LostFilm


    Режиссёр : Майкл Аппендаль / Michael Uppendahl


    В ролях : Лиам Каннингэм, Пол Джеймс, Роберт Шон Леонард, Марк Келли, Ленни Платт, Джеймс Д`Арси, Ник Сирси, Роберт Уиздом, Эйден Гленн, Тофер Грэйс


    Описание : Действие сериала разворачивается в 1989 году. На территорию США попадает вирус Эбола. Лейтенант Нэнси Джекс — жена и мать двоих детей — рискует жизнью, тестируя образец одного из самых смертоносных вирусов в мире. Чтобы выяснить источник его возникновения и предотвратить вспышку заболевания в Соединенных Штатах, Джекс привлекает к исследованию своего наставника, эксперта по Эболе доктора Уэйда Картера.


    Ссылка на предыдущие и альтернативные раздачи


    image image imageimage


    Качество : WEB-DLRip

    Формат : AVI

    Видео : XviD, 704x352 (2,000), 23.976 кадров/сек, ~1600 Кбит/сек

    Аудио Rus : image AC3, 48,0 kHz, 2 ch, 192 Кбит/сек |

    LostFilm

    Аудио Eng : image AC3, 48,0 kHz, 2 ch, 192 Кбит/сек

    Субтитры : Английские (SDH)

    Реклама :

    Отсутствует


    ✘ Релиз ✘

    • Очистка от рекламы kogesan


    Список серий

    1. Появление / Arrival

    MediaInfo

    `Общее
    Полное имя : E:The.Hot.Zone.S01E01.WEB-DLRip.RGzsRutracker.[WentworthMiller].avi
    Формат : AVI
    Формат/Информация : Audio Video Interleave
    Размер файла : 660 Мбайт
    Продолжительность : 46 м. 12 с.
    Общий поток : 1998 Кбит/сек
    Название фильма : The Hot Zone 01x01 (Появление / Arrival) - Release by Wentworth
    Miller
    Программа кодирования : VirtualDubMod 1.5.10.3 | www.virtualdub-fr.org || (build 2550/release)

    Видео
    Идентификатор : 0
    Формат : MPEG-4 Visual
    Профиль формата : Advanced [email protected]
    Настройки формата : BVOP1
    Параметр BVOP формата : 1
    Параметр QPel формата : Нет
    Параметр GMC формата : Без точки перехода
    Параметр матрицы формата : Default (MPEG)
    Идентификатор кодека : XVID
    Идентификатор кодека/Подсказка : XviD
    Продолжительность : 46 м. 12 с.
    Битрейт : 1600 Кбит/сек
    Ширина : 704 пикселя
    Высота : 352 пикселя
    Соотношение сторон : 2,000
    Частота кадров : 23,976 (24000/1001) кадра/сек
    Цветовое пространство : YUV
    Субдискретизация насыщенности : 4:2:0
    Битовая глубина : 8 бит
    Тип развёртки : Прогрессивная
    Метод сжатия : С потерями
    Бит/(Пиксели*Кадры) : 0.269
    Размер потока : 529 Мбайт (80%)
    Библиотека кодирования : XviD 67

    Аудио #1
    Идентификатор : 1
    Формат : AC-3
    Формат/Информация : Audio Coding 3
    Коммерческое название : Dolby Digital
    Идентификатор кодека : 2000
    Продолжительность : 46 м. 11 с.
    Вид битрейта : Постоянный
    Битрейт : 192 Кбит/сек
    Каналы : 2 канала
    ChannelLayout : L R
    Частота : 48,0 КГц
    Частота кадров : 31,250 кадров/сек (1536 SPF)
    Битовая глубина : 16 бит
    Метод сжатия : С потерями
    Размер потока : 63,4 Мбайт (10%)
    Выравнивание : Разделение по промежуткам
    Продолжительность промежутка : 42 мс. (1,00 видеокадр)
    Время предзагрузки промежутка : 500 мс.
    ServiceKind/String : Complete Main

    Аудио #2
    Идентификатор : 2
    Формат : AC-3
    Формат/Информация : Audio Coding 3
    Коммерческое название : Dolby Digital
    Идентификатор кодека : 2000
    Продолжительность : 46 м. 12 с.
    Вид битрейта : Постоянный
    Битрейт : 192 Кбит/сек
    Каналы : 2 канала
    ChannelLayout : L R
    Частота : 48,0 КГц
    Частота кадров : 31,250 кадров/сек (1536 SPF)
    Битовая глубина : 16 бит
    Метод сжатия : С потерями
    Размер потока : 63,5 Мбайт (10%)
    Выравнивание : Разделение по промежуткам
    Продолжительность промежутка : 42 мс. (1,00 видеокадр)
    Время предзагрузки промежутка : 500 мс.
    ServiceKind/String : Complete Main `


    Скриншоты

    imageimageimageimage


    Внимание! Раздача ведётся путём добавления новых серий

    Внимание! Раздача ведётся путём добавления новых серий; при каждом добавлении создаётся новый торрент. Чтобы начать докачку новой серии, пользователям необходимо сделать следующее:

    (1)

    остановить скачивание,

    (2)

    удалить старый торрент у себя из клиента (старые серии удалять не надо),

    (3)

    скачать новый торрент и запустить его у себя в клиенте вместо старого, при этом указать клиенту путь в старую папку куда и должно происходить скачивание новых серий.

    Ваш клиент при этом должен произвести хеширование (проверку) старой папки (если не производит сам - помогите ему сделать это), и будет докачивать только те серии которых у вас ещё нет. Старые серии при этом не удаляются, а продолжают раздаваться!

    Eсли вы уже удалили старые серии, то предотвратить повторную закачку старых серий можно, отжав галочку в соответствующих местах при запуске нового торрента. По возможности, желательно не удалять старые серии как можно дольше чтобы релизёр не столько продолжал раздавать старые серии, а смог сконцентрироваться на новых.


    Релиз группы

    :

    image


    More at ibit.to
    And ibit.uno
    And ibit.ws

    Reviews

    Comments

    4 months ago

    Просьба ко всем.При перезаливе раздач, имеющих в названии файлов надпись «RGzsRutracker», на другие трекеры / сайты, обязательно размещать в оформлении этот баннер: Всем спасибо за понимание. Приятного просмотра.

    Files

    The Hot Zone (Season 1) WEB-DLRip LostFilmEngThe.Hot.Zone.S01E01.WEB-DLRip.RGzsRutracker.[Wentworth_Miller].srt 48 kB
    The Hot Zone (Season 1) WEB-DLRip LostFilmThe.Hot.Zone.S01E01.WEB-DLRip.RGzsRutracker.[Wentworth_Miller].avi 692 MB

    Stream

    Downloading Seeding The Hot Zone (Season 1) WEB-DLRip LostFilm from to 0 peers.
    of
    0 b/s / ↗0 b/s