• 1
  • -
  • done
Anonymous Downloadondemand_video
  • The Hot Zone S01 NewStudio
  • 692 MB
  • бёдвар
  • Hot Zone S01 NewStudio
  • Зарубежные сериалы
Warning! Use a VPN When Downloading Torrents!
Your IP Address is ,
Your Internet Provider can see when you download torrents! Hide your IP ADDRESS with a VPN
We strongly recommend Trust.Zone VPN to hide your torrenting. It's FREE!
DOWNLOAD VPN
61%

The Hot Zone: The Hot Zone(2019)

  • Drama
  • Heroic U.S. Army scientist Dr. Nancy Jaax, working with a secret military specialized team, puts her life on the line to head off an Ebola outbreak before it spread to the human population.

    expand_more
    English

    Description

    Зона заражения / The Hot Zone

    image

    Год выпуска :

    2019

    Страна :

    США

    Жанр :

    фантастика, триллер, драма.

    Продолжительность :

    ~00:47:00

    Перевод :

    Профессиональный (многоголосый закадровый) NewStudio

    Режиссёр :

    Майкл Аппендаль

    В ролях :

    Лиам Каннингэм, Пол Джеймс, Роберт Шон Леонард, Марк Келли, Ленни Платт, Джеймс Д`Арси, Ник Сирси, Роберт Уиздом, Эйден Гленн, Тофер Грэйс

    Описание :

    Действие сериала разворачивается в 1989 году. На территорию США попадает вирус Эбола. Лейтенант Нэнси Джекс — жена и мать двоих детей — рискует жизнью, тестируя образец одного из самых смертоносных вирусов в мире. Чтобы выяснить источник его возникновения и предотвратить вспышку заболевания в Соединенных Штатах, Джекс привлекает к исследованию своего наставника, эксперта по Эболе доктора Уэйда Картера.

    image image image image

    Качество :

    WEB-DLRip

    Формат :

    AVI

    Видео :

    XviD, 704х352, 23,976 fps, ~ 1599 kbps

    Аудио 1 :

    image 48 kHz, AC3 2 ch, ~192 kbps |NewStudio|

    Аудио 2 :

    image 48 kHz, AC3 2 ch, ~192 kbps

    Субтитры :

    Английские (SDH)

    Реклама :

    Отсутствует

    Предыдущие и альтернативные раздачи

    Релиз

    Очистка от рекламы:

    Atla22

    MediaInfo

    `

    Format : AVI
    Format/Info : Audio Video Interleave
    File size : 660 MiB
    Duration : 46mn 12s
    Overall bit rate : 1 998 Kbps
    Movie name : Зона заражения 1х01: Появление
    Director : Бёдвар (WEB-DLRip)
    Writing application : VirtualDubModRus 1.5.10.2 (build 2542/release)
    Comment : 31.05.2019

    Video
    ID : 0
    Format : MPEG-4 Visual
    Format profile : Advanced [email protected]
    Format settings, BVOP : 1
    Format settings, QPel : No
    Format settings, GMC : No warppoints
    Format settings, Matrix : Default (MPEG)
    Codec ID : XVID
    Codec ID/Hint : XviD
    Duration : 46mn 12s
    Bit rate : 1 600 Kbps
    Width : 704 pixels
    Height : 352 pixels
    Display aspect ratio : 2.000
    Frame rate : 23.976 (24000/1001) fps
    Color space : YUV
    Chroma subsampling : 4:2:0
    Bit depth : 8 bits
    Scan type : Progressive
    Compression mode : Lossy
    Bits/(Pixel*Frame) : 0.269
    Stream size : 529 MiB (80%)
    Writing library : XviD 67

    Audio #1
    ID : 1
    Format : AC-3
    Format/Info : Audio Coding 3
    Mode extension : CM (complete main)
    Format settings, Endianness : Big
    Codec ID : 2000
    Duration : 46mn 12s
    Bit rate mode : Constant
    Bit rate : 192 Kbps
    Channel(s) : 2 channels
    Channel positions : Front: L R
    Sampling rate : 48.0 KHz
    Frame rate : 31.250 fps (1536 spf)
    Compression mode : Lossy
    Stream size : 63.5 MiB (10%)
    Alignment : Split accross interleaves
    Interleave, duration : 42 ms (1.00 video frame)
    Interleave, preload duratio : 500 ms

    Audio #2
    ID : 2
    Format : AC-3
    Format/Info : Audio Coding 3
    Mode extension : CM (complete main)
    Format settings, Endianness : Big
    Codec ID : 2000
    Duration : 46mn 12s
    Bit rate mode : Constant
    Bit rate : 192 Kbps
    Channel(s) : 2 channels
    Channel positions : Front: L R
    Sampling rate : 48.0 KHz
    Frame rate : 31.250 fps (1536 spf)
    Compression mode : Lossy
    Stream size : 63.5 MiB (10%)
    Alignment : Split accross interleaves
    Interleave, duration : 42 ms (1.00 video frame)
    Interleave, preload duratio : 500 ms

    `

    Скриншоты

    imageimageimageimage

    Внимание! Раздача ведётся путём добавления новых серий

    Внимание! Раздача ведётся путём добавления новых серий; при каждом добавлении создаётся новый торрент. Чтобы начать докачку новой серии,пользователям необходимо сделать следующее:

    (1) остановить скачивание,

    (2) удалить старый торрент у себя из клиента (старые серии удалять не надо),

    (3) скачать новый торрент и запустить его у себя в клиенте вместо старого, при этом указать клиенту путь в старую папку куда и должнопроисходить скачивание новых серий.

    Ваш клиент при этом должен произвести хеширование (проверку) старой папки (если не производит сам - помогите ему сделать это), и будет докачивать только те серии
    которых у вас ещё нет. Старые серии при этом не удаляются, а продолжают раздаваться!

    Eсли вы уже удалили старые серии, то предотвратить повторную закачку старых серий можно, отжав галочку в соответствующих местах при запуске нового торрента.

    По возможности, желательно не удалять старые серии как можно дольше чтобы релизёр не столько продолжал раздавать старые серии, а смог сконцентрироваться на новых.

    Релиз группы

    :

    image


    More at ibit.to
    And ibit.uno
    And ibit.ws

    Reviews

    Comments

    Files

    The Hot Zone S01 NewStudioEngThe.Hot.Zone.S01E01.WEB-DLRip.Rus.Eng.NewStudio.RGzsRutracker.srt 48 kB
    The Hot Zone S01 NewStudioThe.Hot.Zone.S01E01.WEB-DLRip.Rus.Eng.NewStudio.RGzsRutracker.avi 692 MB

    Stream

    Downloading Seeding The Hot Zone S01 NewStudio from to 0 peers.
    of
    0 b/s / ↗0 b/s