• 0
  • 0
  • done
Anonymous Download
  • The.Highwaymen.WEBRip.720p.m4v
  • 4.0 GB
  • pk5360114
  • Highwaymen WEBRip 720p m4v
  • Видео HD
Warning! Use a VPN When Downloading Torrents!
Your IP Address is ,
Your Internet Provider can see when you download torrents! Hide your IP ADDRESS with a VPN
We strongly recommend Trust.Zone VPN to hide your torrenting. It's FREE!
DOWNLOAD VPN

Description

В погоне за Бонни и Клайдом / The Highwaymen

«The Legends who took down Bonnie and Clyde»

image / 10 image 7.20 / 10


image

Год выпуска : 2019

Страна : США

Жанр : Триллер, драма, криминал, детектив

Продолжительность : 02:12:16

Перевод : Дублированный АРК-ТВ Studio & VSI International по заказу Netflix

Оригинальная аудиодорожка : Есть

Cубтитры : Русские форсированные, Русские, Английские

Режиссёр : Джон Ли Хэнкок

Сценарий : Джон Фуско

Продюсер : Кэйси Сильвер, Майкл Дж. Мэлоун, Matthew Reynolds

Оператор : Джон Шварцман

Композитор : Томас Ньюман

Художник : Майкл Коренблит, Дэниэл Орланди, Сьюзэн Бенжамин

Монтаж : Роберт Фрэйзен

В ролях : Кевин Костнер, Вуди Харрельсон, Ким Диккенс, Эмили Бробст, Кэти Бейтс, У. Эрл Браун, Джон Кэрролл Линч, Томас Манн, Эдвард Боссерт, Дэвид Фурр

Мировая премьера : 10 марта 2019

Описание : В 1930-е годы техасский рейнджер Фрэнк Хеймер получает задание поймать и обезвредить двух опасных грабителей банков. Вместе с напарником Мэнни Голтом он возглавляет охоту за парочкой молодых неуловимых преступников, которых зовут Бонни и Клайд.


Качество исходника : WEBRip 720p (NNMClub)

Качество : WEBRip

Тип : HD (720p)

Контейнер : M4V

Видео : H.264, 1280x720, 16:9, 2 870 Kbps, 24.000 fps

Аудио 1 : Русский/Дублированный , AAC LC / 2.0 / 160 Kbps / 48.0 KHz

Аудио 2 : Английский/Оригинальная дорожка , AAC LC / 2.0 / 160 Kbps / 48.0 KHz

Аудио 3 : Русский/Дублированный , AC-3 / 5.1 / 384 Kbps / 48.0 KHz

Аудио 4 : Английский/Оригинальная дорожка , AC-3 / 5.1 / 448 Kbps / 48.0 KHz

Субтитры 1 : Русские форсированные

Субтитры 2 : Русские полные

Субтитры 3 : Английские полные


iTunes Meta Tags

Код:

Sort Name: The Highwaymen
XID: Apple:vendor_id:2019-830906
contentID: 830906
Screenwriters: Джон Фуско
Producers: Кэйси Сильвер, Майкл Дж. Мэлоун, Matthew Reynolds
Director: Джон Ли Хэнкок
Cast: Кевин Костнер, Вуди Харрельсон, Ким Диккенс, Эмили Бробст, Кэти Бейтс, У. Эрл Браун, Джон Кэрролл Линч, Томас Манн, Edward Bossert, Дэвид Фурр
Studio: NETFLIX
Rating Annotation: Rated R for strong disturbing violence/sadistic behavior, grisly images, language, and nudity.
Rating: 5
Long Description: В 1930-е годы техасский рейнджер Фрэнк Хеймер получает задание поймать и обезвредить двух опасных грабителей банков. Вместе с напарником Мэнни Голтом он возглавляет охоту за парочкой молодых неуловимых преступников, которых зовут Бонни и Клайд.
Description: В 1930-е годы техасский рейнджер Фрэнк Хеймер получает задание поймать и обезвредить двух опасных грабителей банков. Вместе с напарником Мэнни Голтом он возглавляет охоту за парочкой молодых неуловимых преступников, которых зовут Бонни и Клайд.
Release Date: 2019-03-10T00:00:00Z
Genre: Drama
Artist: John Lee Hancock
Name: The Highwaymen

MediaInfo

Код:

General
Complete name                            : /Users/imac/HandBrake/The.Highwaymen.WEBRip.720p.m4v
Format                                   : MPEG-4
Codec ID                                 : M4V  (M4V /M4A /mp42/isom)
File size                                : 3.70 GiB
Duration                                 : 2h 12mn
Overall bit rate mode                    : Variable
Overall bit rate                         : 4 006 Kbps
Movie name                               : The Highwaymen
Performer                                : John Lee Hancock
Director                                 : Джон Ли Хэнкок
Actor                                    : Кевин Костнер / Вуди Харрельсон / Ким Диккенс / Эмили Бробст / Кэти Бейтс / У. Эрл Браун / Джон Кэрролл Линч / Томас Манн / Edward Bossert / Дэвид Фурр
Screenplay by                            : Джон Фуско
Producer                                 : Кэйси Сильвер / Майкл Дж. Мэлоун / Matthew Reynolds
Production studio                        : NETFLIX
Genre                                    : Drama
ContentType                              : Short Film
Description                              : В 1930-е годы техасский рейнджер Фрэнк Хеймер получает задание поймать и обезвредить двух опасных грабителей банков. Вместе с напарником Мэнни Голтом он возглавляет охоту за парочкой молодых неуловимых преступников, которых зовут Бонни и Клайд.
Recorded date                            : UTC 2019-03-10 00:00:00
Encoded date                             : UTC 2019-03-30 00:06:11
Tagged date                              : UTC 2019-03-30 00:07:54
Cover                                    : Yes
Rating                                   : None
Title/Sort                               : The Highwaymen
LongDescription                          : В 1930-е годы техасский рейнджер Фрэнк Хеймер получает задание поймать и обезвредить двух опасных грабителей банков. Вместе с напарником Мэнни Голтом он возглавляет охоту за парочкой молодых неуловимых преступников, которых зовут Бонни и Клайд.
HDVideo                                  : Yes
AppleStoreCatalogID                      : 830906
Vendor                                   : Apple:vendor_id:2019-830906
ContentRating                            : mpaa|R|400|Rated R for strong disturbing violence/sadistic behavior, grisly images, language, and nudity.

Video
ID                                       : 1
Format                                   : AVC
Format/Info                              : Advanced Video Codec
Format profile                           : [email protected]
Format settings                          : CABAC / 3 Ref Frames
Format settings, CABAC                   : Yes
Format settings, ReFrames                : 3 frames
Codec ID                                 : avc1
Codec ID/Info                            : Advanced Video Coding
Duration                                 : 2h 12mn
Bit rate mode                            : Variable
Bit rate                                 : 2 870 Kbps
Maximum bit rate                         : 4 305 Kbps
Width                                    : 1 280 pixels
Height                                   : 720 pixels
Display aspect ratio                     : 16:9
Frame rate mode                          : Variable
Frame rate                               : 24.000 fps
Minimum frame rate                       : 23.810 fps
Maximum frame rate                       : 24.390 fps
Color space                              : YUV
Chroma subsampling                       : 4:2:0
Bit depth                                : 8 bits
Scan type                                : Progressive
Bits/(Pixel*Frame)                       : 0.130
Stream size                              : 2.63 GiB (71%)
Title                                    : Main Program
Writing library                          : x264 core 148 r2715 7e75228
Encoding settings                        : cabac=1 / ref=3 / deblock=1:0:0 / analyse=0x1:0x111 / me=umh / subme=10 / psy=1 / psyrd=1.00:0.00 / mixedref=1 / merange=24 / chromame=1 / trellis=2 / 8x8dct=0 / cqm=0 / deadzone=21,11 / fastpskip=1 / chromaqpoffset=-2 / threads=8 / lookaheadthreads=1 / slicedthreads=0 / nr=0 / decimate=1 / interlaced=0 / bluraycompat=0 / stitchable=1 / constrainedintra=0 / bframes=2 / bpyramid=0 / badapt=2 / bbias=0 / direct=3 / weightb=1 / opengop=0 / weightp=2 / keyint=48 / keyintmin=25 / scenecut=0 / intrarefresh=0 / rclookahead=48 / rc=2pass / mbtree=1 / bitrate=2870 / ratetol=1.0 / qcomp=0.50 / qpmin=6 / qpmax=51 / qpstep=4 / cplxblur=20.0 / qblur=0.5 / vbvmaxrate=4305 / vbvbufsize=5740 / nalhrd=vbr / filler=0 / ipratio=1.40 / aq=1:1.00
Language                                 : English
Encoded date                             : UTC 2019-03-30 00:06:11
Tagged date                              : UTC 2019-03-30 00:06:31
Codec configuration box                  : avcC

Audio #1
ID                                       : 2
Format                                   : AAC LC
Format/Info                              : Advanced Audio Codec Low Complexity
Codec ID                                 : mp4a-40-2
Duration                                 : 2h 12mn
Source duration                          : 2h 12mn
Bit rate mode                            : Variable
Bit rate                                 : 158 Kbps
Maximum bit rate                         : 221 Kbps
Channel(s)                               : 2 channels
Channel layout                           : L R
Sampling rate                            : 48.0 KHz
Frame rate                               : 46.875 fps (1024 SPF)
Compression mode                         : Lossy
Stream size                              : 149 MiB (4%)
Source stream size                       : 149 MiB (4%)
Title                                    : Russian Stereo
Language                                 : Russian
Default                                  : Yes
Alternate group                          : 1
Encoded date                             : UTC 2019-03-30 00:06:11
Tagged date                              : UTC 2019-03-30 00:06:46
Fallback From                            : 4
Subsrcs                                : 6,7

Audio #2
ID                                       : 3
Format                                   : AAC LC
Format/Info                              : Advanced Audio Codec Low Complexity
Codec ID                                 : mp4a-40-2
Duration                                 : 2h 12mn
Source duration                          : 2h 12mn
Bit rate mode                            : Variable
Bit rate                                 : 157 Kbps
Maximum bit rate                         : 250 Kbps
Channel(s)                               : 2 channels
Channel layout                           : L R
Sampling rate                            : 48.0 KHz
Frame rate                               : 46.875 fps (1024 SPF)
Compression mode                         : Lossy
Stream size                              : 148 MiB (4%)
Source stream size                       : 148 MiB (4%)
Title                                    : English Stereo
Language                                 : English
Default                                  : No
Alternate group                          : 1
Encoded date                             : UTC 2019-03-30 00:06:11
Tagged date                              : UTC 2019-03-30 00:06:46
Fallback From                            : 5

Audio #3
ID                                       : 4
Format                                   : AC-3
Format/Info                              : Audio Coding 3
Commercial name                          : Dolby Digital
Codec ID                                 : ac-3
Duration                                 : 2h 12mn
Bit rate mode                            : Constant
Bit rate                                 : 384 Kbps
Channel(s)                               : 6 channels
Channel layout                           : L R C LFE Ls Rs
Sampling rate                            : 48.0 KHz
Frame rate                               : 31.250 fps (1536 SPF)
Bit depth                                : 16 bits
Compression mode                         : Lossy
Stream size                              : 363 MiB (10%)
Title                                    : Russian DD 5.1
Language                                 : Russian
Service kind                             : Complete Main
Default                                  : Inherited From: 2
Alternate group                          : 1
Encoded date                             : UTC 2019-03-30 00:06:11
Tagged date                              : UTC 2019-03-30 00:06:46
Fallback To                              : 2
Subsrcs                                : 6,7

Audio #4
ID                                       : 5
Format                                   : AC-3
Format/Info                              : Audio Coding 3
Commercial name                          : Dolby Digital
Codec ID                                 : ac-3
Duration                                 : 2h 12mn
Bit rate mode                            : Constant
Bit rate                                 : 448 Kbps
Channel(s)                               : 6 channels
Channel layout                           : L R C LFE Ls Rs
Sampling rate                            : 48.0 KHz
Frame rate                               : 31.250 fps (1536 SPF)
Bit depth                                : 16 bits
Compression mode                         : Lossy
Stream size                              : 424 MiB (11%)
Title                                    : English DD 5.1
Language                                 : English
Service kind                             : Complete Main
Default                                  : No
Alternate group                          : 1
Encoded date                             : UTC 2019-03-30 00:06:11
Tagged date                              : UTC 2019-03-30 00:06:46
Fallback To                              : 3

Text #1
ID                                       : 6
Format                                   : Timed Text
Muxing mode                              : sbtl
Codec ID                                 : tx3g
Duration                                 : 2h 11mn
Bit rate mode                            : Variable
Bit rate                                 : 3 bps
Stream size                              : 2.45 KiB (0%)
Title                                    : Russian forced
Language                                 : Russian
Default                                  : Yes
Forced                                   : Yes
Alternate group                          : 2
Encoded date                             : UTC 2019-03-30 00:06:11
Tagged date                              : UTC 2019-03-30 00:06:45
Subsrcs For                            : 2,4
Full Alternative                         : 7

Text #2
ID                                       : 7
Format                                   : Timed Text
Muxing mode                              : sbtl
Codec ID                                 : tx3g
Duration                                 : 2h 11mn
Bit rate mode                            : Variable
Bit rate                                 : 67 bps
Stream size                              : 64.8 KiB (0%)
Title                                    : Russian full
Language                                 : Russian
Default                                  : No
Forced                                   : No
Alternate group                          : 2
Encoded date                             : UTC 2019-03-30 00:06:11
Tagged date                              : UTC 2019-03-30 00:06:45
Subsrcs For                            : 2,4
Forced Alternative                       : 6

Text #3
ID                                       : 8
Format                                   : Timed Text
Muxing mode                              : sbtl
Codec ID                                 : tx3g
Duration                                 : 2h 2mn
Bit rate mode                            : Variable
Bit rate                                 : 56 bps
Stream size                              : 50.7 KiB (0%)
Title                                    : English SDH
Language                                 : English
Default                                  : No
Forced                                   : No
Alternate group                          : 2
Encoded date                             : UTC 2019-03-30 00:06:11
Tagged date                              : UTC 2019-03-30 00:06:45

Скриншоты

image image image image image image


imageimageimageimage
Релиз подготовлен для просмотра на Apple TV, iPad, iPhone, iPod Touch.
Для просмотра данного релиза на компьютере с ОС Windows рекомендуется использовать VLC media player


More at ibit.to
And ibit.uno
And ibit.ws

Comments

Files

The.Highwaymen.WEBRip.720p.m4v 4.0 GB

Stream

Downloading Seeding The.Highwaymen.WEBRip.720p.m4v from to 0 peers.
of
0 b/s / ↗0 b/s