• 0
  • 0
  • done
Sponsored Download
  • The Helio Sequence - 2018 - Keep Your Eyes Ahead (Deluxe Edition) (Web)
  • 488 MB
  • andromaxvic
  • Helio Sequence 2018 Eyes Ahead Deluxe Edition Web
  • Зарубежные Alternative, Punk,

Description

The Helio Sequence - Keep Your Eyes Ahead


image

Жанр : Indie Rock

Носитель : WEB

Год издания : 2008/2018

Издатель-лейбл : Sub Pop Records

Страна исполнителя : USA

Аудиокодек : FLAC (*.flac)

Тип рипа : tracks

Битрейт аудио : lossless

Продолжительность : 01:15:15

Источник : Сеть - купить

Наличие сканов : нет

Треклист :

01.

Lately (Remastered)

(4:11)

02.

Can't Say No (Remastered)

(3:33)

03.

The Captive Mind (Remastered)

(3:35)

04.

You Can Come to Me (Remastered)

(4:00)

05.

Shed Your Love (Remastered)

(3:19)

06.

Keep Your Eyes Ahead (Remastered)

(4:25)

07.

Back to This (Remastered)

(3:34)

08.

Hallelujah (Remastered)

(4:30)

09.

Broken Afternoon (Remastered)

(4:18)

10.

No Regrets (Remastered)

(1:46)

11.

Turn the Page

(3:17)

12.

Up Against Time

(3:54)

13.

Heart Disease

(3:21)

14.

No Regrets (Electric)

(3:06)

15.

January

(5:45)

16.

No Regrets (Keyboards)

(2:11)

17.

All of These Things

(3:24)

18.

Almost Morning (Demo)

(3:19)

19.

Broken Afternoon (Solo)

(4:05)

20.

April (Demo)

(3:23)

21.

No Regrets (Acoustic)

(2:20)

auCDtect

`PERFORMER: auCDtect Task Manager, ver. 1.6.0 RC1 build 1.6.0.1
Copyright (c) 2008-2010 y-soft. All rights reserved
http://y-soft.org

ANALYZER: auCDtect: CD records authenticity detector, version 0.8.2
Copyright (c) 2004 Oleg Berngardt. All rights reserved.
Copyright (c) 2004 Alexander Djourik. All rights reserved.

FILE: 21 No Regrets (Acoustic).flac
Size: 12345400 Hash: E7AAA11EA5BECCAB801A18308645DB99 Accuracy: -m0
Conclusion: CDDA 100%
Signature: 8A1076627FD346E5994F57366C6B7D8674CC87DD
FILE: 20 April (Demo).flac
Size: 21458820 Hash: 51459A9FB5B15CF52878EAAA249B160A Accuracy: -m0
Conclusion: MPEG 95%

image
Signature: 409624E837C3C722CB20143DC158A44510609976
FILE: 19 Broken Afternoon (Solo).flac
Size: 22277791 Hash: 3140D60423376D151EE6CB7B48F4AB7D Accuracy: -m0
Conclusion: MPEG 95%

image
Signature: 32B8E15EB1FF57F6C3649F76377A893B8D43BF07
FILE: 18 Almost Morning (Demo).flac
Size: 19943766 Hash: 069312863F2D92D5216ABA9C5F5C9FCC Accuracy: -m0
Conclusion: CDDA 100%
Signature: 5E84B222BFF892AC9BA70FB8357A241542CB2AA9
FILE: 17 All of These Things.flac
Size: 21521948 Hash: A90639F9A5261E0FB7BD13102410CB11 Accuracy: -m0
Conclusion: CDDA 100%
Signature: BEB0A5550D33B89D70A003CDB21C4BA9655595C4
FILE: 16 No Regrets (Keyboards).flac
Size: 11957434 Hash: 9461265775F403BB6A72AF7D2965BDD3 Accuracy: -m0
Conclusion: CDDA 100%
Signature: 008E97E7293C578D6D0AB04A48235875A10FDFFF
FILE: 15 January.flac
Size: 37064140 Hash: 7683BF0EFA198C9C57BCF3593C6375B4 Accuracy: -m0
Conclusion: CDDA 100%
Signature: CAD97886E6C79E43D4BE323E80D36313B0A1F81B
FILE: 14 No Regrets (Electric).flac
Size: 22515651 Hash: 5DC453E7655AD9ACC5F68200F0CC388F Accuracy: -m0
Conclusion: CDDA 100%
Signature: AE316E98894E2EDD0B7BFC95352243984777B83E
FILE: 13 Heart Disease.flac
Size: 24684679 Hash: 27A23212D00261AE1E8E70A02D7E17B6 Accuracy: -m0
Conclusion: CDDA 100%
Signature: 0C2ED539347E06E11292D4819F520B299928B668
FILE: 12 Up Against Time.flac
Size: 28595156 Hash: D8C5E968A6D49B61CC76AFF4A35F4A53 Accuracy: -m0
Conclusion: CDDA 100%
Signature: 46C9D1F807C368FD0E232A156B4DF2498C4AE081
FILE: 11 Turn the Page.flac
Size: 24666385 Hash: 8B6CA4CECC4C18D1AF05725036CBD725 Accuracy: -m0
Conclusion: CDDA 100%
Signature: AFA205628685E7C4183B1BCD9D1867A0AC4EFB6A
FILE: 10 No Regrets (Remastered).flac
Size: 11902886 Hash: 1ECB13D0C1794EC64D4D27ED3716163B Accuracy: -m0
Conclusion: CDDA 100%
Signature: A769E132396952C6CE82778ABD579627E2EBB214
FILE: 09 Broken Afternoon (Remastered).flac
Size: 25685205 Hash: 6B83C565BB8144E8031385074FCF5A95 Accuracy: -m0
Conclusion: CDDA 100%
Signature: 51795CFD451B107DD01C41A179FDB353DF89610C
FILE: 08 Hallelujah (Remastered).flac
Size: 34601897 Hash: B7D7432209B04E371319A4936CE0B2A9 Accuracy: -m0
Conclusion: CDDA 100%
Signature: 487BD5503C86395BA736BE47169C0B7206F97ED6
FILE: 07 Back to This (Remastered).flac
Size: 25869494 Hash: 6CA143FEC7714DFA0930E3D99667A43F Accuracy: -m0
Conclusion: CDDA 99%
Signature: EBAD041C7625719FE651A6131B753024455D70BC
FILE: 06 Keep Your Eyes Ahead (Remastered).flac
Size: 32676521 Hash: A775E7F5AF01017DC4595DF135DB79F9 Accuracy: -m0
Conclusion: CDDA 100%
Signature: 65EECE4EC03CD5907E85AFA28BD7B923381A7796
FILE: 05 Shed Your Love (Remastered).flac
Size: 20505113 Hash: B7D8BDFE75C83393B04644A9610DDAAB Accuracy: -m0
Conclusion: CDDA 100%
Signature: AA334B145C39E724182343B9C2DB442C730AE759
FILE: 04 You Can Come to Me (Remastered).flac
Size: 29321500 Hash: E6394D52EDD61537A6FDA4F88167DFB4 Accuracy: -m0
Conclusion: CDDA 100%
Signature: B76A0FC2E0532C4C95E40333170FBB3A7506F2D2
FILE: 03 The Captive Mind (Remastered).flac
Size: 27251793 Hash: AD87A244FF3639A3A0EA505561E81ED2 Accuracy: -m0
Conclusion: CDDA 100%
Signature: C537A6D246799F5C42818597C7914F6782D2CE8D
FILE: 02 Can't Say No (Remastered).flac
Size: 27816112 Hash: 6E65B3828DFE3F3381D8341C2779E3F6 Accuracy: -m0
Conclusion: CDDA 100%
Signature: 3EF65F44FDC4CC37877DEB3B6F548A3ADEBCF4CD
FILE: 01 Lately (Remastered).flac
Size: 28938757 Hash: F61658A1C98A06758441E1C565E3C793 Accuracy: -m0
Conclusion: CDDA 100%
Signature: BE75F3B4B9A9EC7E13DF25A00342E0008CE94551 `

DR

`foobar2000 1.4 / Замер динамического диапазона (DR) 1.1.1
Дата отчёта: 2018-10-12 11:47:53


Анализ: The Helio Sequence / Keep Your Eyes Ahead (Deluxe Edition)
DR Пики RMS Продолжительность трека

DR4 -0.30 дБ -6.92 дБ 4:11 01-Lately (Remastered)
DR5 -0.30 дБ -6.66 дБ 3:33 02-Can't Say No (Remastered)
DR5 -0.30 дБ -6.65 дБ 3:35 03-The Captive Mind (Remastered)
DR5 -0.30 дБ -7.58 дБ 4:00 04-You Can Come to Me (Remastered)
DR8 -0.30 дБ -9.88 дБ 3:19 05-Shed Your Love (Remastered)
DR5 -0.30 дБ -6.90 дБ 4:25 06-Keep Your Eyes Ahead (Remastered)
DR6 -0.30 дБ -8.21 дБ 3:34 07-Back to This (Remastered)
DR5 -0.30 дБ -6.92 дБ 4:30 08-Hallelujah (Remastered)
DR7 -0.30 дБ -9.80 дБ 4:18 09-Broken Afternoon (Remastered)
DR7 -0.30 дБ -9.24 дБ 1:46 10-No Regrets (Remastered)
DR8 -0.30 дБ -9.34 дБ 3:17 11-Turn the Page
DR6 -0.30 дБ -7.82 дБ 3:54 12-Up Against Time
DR6 -0.30 дБ -7.92 дБ 3:21 13-Heart Disease
DR7 -0.30 дБ -9.15 дБ 3:06 14-No Regrets (Electric)
DR7 -0.30 дБ -9.24 дБ 5:45 15-January
DR6 -0.30 дБ -9.20 дБ 2:11 16-No Regrets (Keyboards)
DR6 -0.30 дБ -8.38 дБ 3:24 17-All of These Things
DR9 -0.30 дБ -11.13 дБ 3:19 18-Almost Morning (Demo)
DR10 -0.30 дБ -11.08 дБ 4:05 19-Broken Afternoon (Solo)
DR8 -0.30 дБ -9.31 дБ 3:23 20-April (Demo)

DR10 -0.30 дБ -12.67 дБ 2:20 21-No Regrets (Acoustic)

Количество треков: 21
Реальные значения DR: DR6

Частота: 44100 Гц
Каналов: 2
Разрядность: 16
Битрейт: 682 кбит/с
Кодек: FLAC
================================================================================ `


More at ibit.to
And ibit.uno
And ibit.ws

Comments

Files

04 You Can Come to Me (Remastered).flac 28 MB
08 Hallelujah (Remastered).flac 33 MB
13 Heart Disease.flac 24 MB
21 No Regrets (Acoustic).flac 12 MB
19 Broken Afternoon (Solo).flac 21 MB
14 No Regrets (Electric).flac 22 MB
03 The Captive Mind (Remastered).flac 26 MB
09 Broken Afternoon (Remastered).flac 24 MB
01 Lately (Remastered).flac 28 MB
16 No Regrets (Keyboards).flac 11 MB
20 April (Demo).flac 20 MB
15 January.flac 35 MB
07 Back to This (Remastered).flac 25 MB
02 Can't Say No (Remastered).flac 26 MB
10 No Regrets (Remastered).flac 11 MB
12 Up Against Time.flac 27 MB
06 Keep Your Eyes Ahead (Remastered).flac 31 MB
17 All of These Things.flac 20 MB
18 Almost Morning (Demo).flac 19 MB
05 Shed Your Love (Remastered).flac 20 MB
11 Turn the Page.flac 24 MB

Stream

Downloading Seeding The Helio Sequence - 2018 - Keep Your Eyes Ahead (Deluxe Edition) (Web) from to 0 peers.
of
0 b/s / ↗0 b/s