• 1
  • 0
Anonymous Downloadondemand_video
  • The Good Doctor S02E11 (1080p AMZN WEB-DL x265 HEVC 10bit AC3 5.1 Qman) [UTR]
  • 920 MB
  • UTR
  • Good Doctor S02E11 1080p AMZN x265 HEVC 10bit Qman WEB AC3 UTR
  • English
  • HEVC/x265
Warning! Use a VPN When Downloading Torrents!
Your IP Address is ,
Your Internet Provider can see when you download torrents! Hide your IP ADDRESS with a VPN
We strongly recommend hide.me VPN to hide your torrenting. It's FREE!
DOWNLOAD VPN
50%

The Good Doctor: Quarantine Part Two (2)(2019)

  • 2 11
  • Drama
  • The hospital is still in quarantine as Dr. Shaun Murphy continues to be overwhelmed by the chaos and noise in the emergency room; Dr. Morgan Reznick struggles to keep her patients alive, and Dr. Audrey Lim fights for her life. Meanwhile, Dr. Neil Melendez and Dr. Claire Browne must find a way to complete their patient’s bone marrow transplant, despite the quarantine.

    expand_more
    English

    Description

    image

    imageimage

    imageimage

    ** Media Information **

    General

    Format                                   : Matroska

    Format version                           : Version 4 / Version 2

    File size                                : 920 MiB

    Duration                                 : 43 min 0 s

    Overall bit rate                         : 2 991 kb/s

    Encoded date                             : UTC 2019-01-18 02:11:19

    Writing application                      : mkvmerge v30.1.0 ('Forever And More') 64-bit

    Writing library                          : libebml v1.3.6 + libmatroska v1.4.9

    Video

    ID                                       : 1

    Format                                   : HEVC

    Format/Info                              : High Efficiency Video Coding

    Format profile                           : Main [email protected]@Main

    Codec ID                                 : V_MPEGH/ISO/HEVC

    Duration                                 : 43 min 0 s

    Bit rate                                 : 2 349 kb/s

    Width                                    : 1 920 pixels

    Height                                   : 1 080 pixels

    Display aspect ratio                     : 16:9

    Frame rate mode                          : Constant

    Frame rate                               : 23.976 (24000/1001) FPS

    Color space                              : YUV

    Chroma subsampling                       : 4:2:0

    Bit depth                                : 10 bits

    Bits/(Pixel*Frame)                       : 0.047

    Stream size                              : 723 MiB (79%)

    Writing library                          : x265 3.0_RC+10-672ce0547e97:[Windows][GCC 8.2.1][64 bit] 10bit

    Encoding settings                        : cpuid=1111039 / frame-threads=4 / numa-pools=16 / wpp / no-pmode / no-pme / no-psnr / no-ssim / log-level=2 / input-csp=1 / input-res=1920x1080 / interlace=0 / total-frames=61871 / level-idc=0 / high-tier=1 / uhd-bd=0 / ref=4 / no-allow-non-conformance / no-repeat-headers / annexb / no-aud / no-hrd / info / hash=0 / no-temporal-layers / open-gop / min-keyint=23 / keyint=250 / gop-lookahead=0 / bframes=8 / b-adapt=2 / b-pyramid / bframe-bias=0 / rc-lookahead=50 / lookahead-slices=4 / scenecut=40 / radl=0 / no-splice / no-intra-refresh / ctu=64 / min-cu-size=8 / no-rect / no-amp / max-tu-size=32 / tu-inter-depth=1 / tu-intra-depth=1 / limit-tu=0 / rdoq-level=2 / dynamic-rd=0.00 / no-ssim-rd / signhide / no-tskip / nr-intra=0 / nr-inter=0 / no-constrained-intra / no-strong-intra-smoothing / max-merge=3 / limit-refs=3 / limit-modes / me=3 / subme=3 / merange=57 / temporal-mvp / weightp / no-weightb / no-analyze-src-pics / deblock=1:1 / no-sao / no-sao-non-deblock / rd=4 / no-early-skip / no-rskip / no-fast-intra / no-tskip-fast / no-cu-lossless / no-b-intra / no-splitrd-skip / rdpenalty=0 / psy-rd=1.40 / psy-rdoq=1.00 / no-rd-refine / no-lossless / cbqpoffs=0 / crqpoffs=0 / rc=crf / crf=21.0 / qcomp=0.60 / qpstep=4 / stats-write=0 / stats-read=0 / ipratio=1.40 / pbratio=1.30 / aq-mode=2 / aq-strength=1.00 / cutree / zone-count=0 / no-strict-cbr / qg-size=32 / no-rc-grain / qpmax=69 / qpmin=0 / no-const-vbv / sar=0 / overscan=0 / videoformat=5 / range=0 / colorprim=2 / transfer=2 / colormatrix=2 / chromaloc=0 / display-window=0 / max-cll=0,0 / min-luma=0 / max-luma=1023 / log2-max-poc-lsb=8 / vui-timing-info / vui-hrd-info / slices=1 / no-opt-qp-pps / no-opt-ref-list-length-pps / no-multi-pass-opt-rps / scenecut-bias=0.05 / no-opt-cu-delta-qp / no-aq-motion / no-hdr / no-hdr-opt / no-dhdr10-opt / no-idr-recovery-sei / analysis-reuse-level=5 / scale-factor=0 / refine-intra=0 / refine-inter=0 / refine-mv=0 / refine-ctu-distortion=0 / no-limit-sao / ctu-info=0 / no-lowpass-dct / refine-analysis-type=0 / copy-pic=1 / max-ausize-factor=1.0 / no-dynamic-refine / no-single-sei / no-hevc-aq / qp-adaptation-range=1.00

    Language                                 : English

    Default                                  : Yes

    Forced                                   : No

    Audio

    ID                                       : 2

    Format                                   : E-AC-3

    Format/Info                              : Enhanced Audio Coding 3

    Format settings, Endianness              : Big

    Codec ID                                 : A_EAC3

    Duration                                 : 43 min 0 s

    Bit rate mode                            : Constant

    Bit rate                                 : 640 kb/s

    Channel(s)                               : 6 channels

    Channel positions                        : Front: L C R, Side: L R, LFE

    Sampling rate                            : 48.0 kHz

    Frame rate                               : 187.500 FPS (256 spf)

    Compression mode                         : Lossy

    Stream size                              : 197 MiB (21%)

    Language                                 : English

    Default                                  : Yes

    Forced                                   : No

    Subtitle

    ID                                       : 3

    Format                                   : UTF-8

    Codec ID                                 : S_TEXT/UTF8

    Codec ID/Info                            : UTF-8 Plain Text

    Duration                                 : 42 min 42 s

    Bit rate                                 : 70 b/s

    Count of elements                        : 824

    Stream size                              : 22.2 KiB (0%)

    Language                                 : English

    Default                                  : Yes

    Forced                                   : No

    ** Source Information **

    Release: Unknown Source/NO-GROUP


    More at ibit.to
    And ibit.uno
    And ibit.am
    And ibit.ws

    Reviews

    ok after careful consideration I tried this show on the first episode and let me tell you I have no regrets in doing so this is by far the most impressive and brilliant show this fall the guy who plays dr murphy is just outstanding and is perfect for this part I have laughed at this show cried over it I have been threw every emotion and this is just the first season please a b c bring back Doctor murphy next season I went in expecting another boring hospital show and I got more far more then I could have ever asked for

    Comments

    Files

    The.Good.Doctor.S02E11.1080p.AMZN.WEB-DL.x265.10bit.EAC3.6.0-Qman[UTR].mkv 920 MB

    Stream

    Downloading Seeding The Good Doctor S02E11 (1080p AMZN WEB-DL x265 HEVC 10bit AC3 5.1 Qman) [UTR] from to 0 peers.
    of
    0 b/s / ↗0 b/s