• 1
  • 1
Sponsored Downloadondemand_video
  • The Girl In The Spiders Web (2018) 2160p Bluray x264 10bit HDR DTS Omikron
  • 9.9 GB
  • OmiChannel
  • Girl Spiders Web 2018 2160p Bluray x264 10bit HDR DTS Omikron
  • English
  • UltraHD/4K
60%

The Girl in the Spider's Web (2018)

  • Thriller Crime Action
  • In Stockholm, Sweden, hacker Lisbeth Salander is hired by Frans Balder, a computer engineer, to retrieve a program that he believes it is too dangerous to exist.

    expand_more
    English
  • $43,000,000
  • Description

    image

    IMDB: [](https://www.imdb.com/title/tt5177088/)[" target="_blank">https://www.imdb.com/title/tt5177088/](https://www.imdb.com/title/tt5177088/ https://sites.google.com/site/omikronchannel/share/0024](https://sites.google.com/site/omikronchannel/share/0024 https://twitter.com/OmikronChannel](https://twitter.com/OmikronChannel https://www.youtube.com/user/OmikronChannel](https://www.youtube.com/user/OmikronChannel MEDIA INFO **

    General

    Unique ID                   : 110233326080579527967467125499382621798 (0x52EE2A965BF36A4F6DBD28E069566666)

    Complete name               : The Girl In The Spiders Web (2018) 2160p Bluray x264 10bit HDR DTS Omikron.mkv

    Format                      : Matroska

    Format version              : Version 4

    File size                   : 9.88 GiB

    Duration                    : 1 h 55 min

    Overall bit rate            : 12.3 Mb/s

    Source name                 : 2160p.BluRay.REMUX.HEVC.DTS-HD.MA.TrueHD.7.1.Atmos-FGT

    Video

    ID                          : 1

    Format                      : AVC

    Format/Info                 : Advanced Video Codec

    Format profile              : High [email protected]

    Format settings             : 4 Ref Frames

    Format settings, CABAC      : No

    Format settings, ReFrames   : 4 frames

    Codec ID                    : V_MPEG4/ISO/AVC

    Duration                    : 1 h 55 min

    Bit rate                    : 11.5 Mb/s

    Width                       : 3 840 pixels

    Height                      : 1 608 pixels

    Display aspect ratio        : 2.40:1

    Frame rate mode             : Constant

    Frame rate                  : 23.976 (24000/1001) FPS

    Color space                 : YUV

    Chroma subsampling          : 4:2:0

    Bit depth                   : 10 bits

    Scan type                   : Progressive

    Bits/(Pixel*Frame)          : 0.078

    Stream size                 : 9.27 GiB (94%)

    Writing library             : x264 core 157 r2935 545de2f

    Encoding settings           : cabac=0 / ref=2 / deblock=0:0:0 / analyse=0x3:0x113 / me=hex / subme=6 / psy=1 / psyrd=1.00:0.00 / mixedref=1 / merange=16 / chromame=1 / trellis=1 / 8x8dct=1 / cqm=0 / deadzone=21,11 / fastpskip=1 / chromaqpoffset=-2 / threads=9 / lookaheadthreads=1 / slicedthreads=0 / nr=0 / decimate=1 / interlaced=0 / bluraycompat=0 / constrainedintra=0 / bframes=3 / bpyramid=2 / badapt=1 / bbias=0 / direct=1 / weightb=0 / opengop=0 / weightp=0 / keyint=240 / keyintmin=24 / scenecut=40 / intrarefresh=0 / rclookahead=30 / rc=2pass / mbtree=1 / bitrate=11500 / ratetol=1.0 / qcomp=0.60 / qpmin=0 / qpmax=81 / qpstep=4 / cplxblur=20.0 / qblur=0.5 / ip_ratio=1.40 / aq=1:1.00

    Default                     : Yes

    Forced                      : No

    Color range                 : Limited

    Color primaries             : BT.2020

    Transfer characteristics    : PQ

    Matrix coefficients         : BT.2020 non-constant

    Audio

    ID                          : 2

    Format                      : DTS

    Format/Info                 : Digital Theater Systems

    Codec ID                    : A_DTS

    Duration                    : 1 h 55 min

    Bit rate mode               : Constant

    Bit rate                    : 755 kb/s

    Channel(s)                  : 6 channels

    Channel layout              : C L R Ls Rs LFE

    Sampling rate               : 48.0 kHz

    Frame rate                  : 93.750 FPS (512 SPF)

    Bit depth                   : 24 bits

    Compression mode            : Lossy

    Stream size                 : 623 MiB (6%)

    Language                    : English

    Default                     : Yes

    Forced                      : No


    More at ibit.to
    And ibit.uno
    And ibit.ws

    Reviews

    Lackluster entry in the Millennium film series: A solid performance by Claire Foy (First Man, Unsane) can't do much to elevate a weak script that, quite often, not only asks you to suspend your disbelief, but to abandon your disbelief altogether. This film is based on the fourth of five books (to date) in the popular "Millennium" series of novels, which happens to be the first of the books written by author David Lagercrantz after the passing of original author Stieg Larsson. The first three books were adapted into a trilogy of films in their native Sweden (all of which were released in 2009), and the first book, The Girl with the Dragon Tattoo, was given an American adaptation helmed by David Fincher in 2011. The story of the newest entry in the film series revolves around a top-secret program called Firefall, which would allow whoever wields it to take control of the world's nuclear weapons. The program was designed by Frans Balder (Stephen Merchant), who has a young autistic son. Balder, having come to realize that the program is too dangerous for any government to control, contacts super-hacker Lisbeth Salander (Foy), asking for her help to find and destroy the program. Unknown to them,however, a mysterious group known only as the Spiders are also after the program. Salander receives help along the way from good friend Mikael Blomkvist (Sverrir Gudnason), a journalist working for Millennium magazine (from which the book series gets its name). In the meantime, Lisbeth's attempt to acquire the Firefall program leads American National Security Agency security expert Edwin Needham (LaKeith Stanfield) to travel to Sweden in hopes of tracking her down. Action abounds, and as the film progresses we learn the identity of the leader of the Spiders, a secret tied to Salander's murky past. Eventually all parties converge on a house in the mountains that is all-too-familiar to Salander, where the film's climax plays out. The film appears to retcon certain details from the previous films (e.g. Blomkvist is younger than he should be), which can be off-putting to those familiar with those films.. Vicky Krieps, who audiences may remember from her fantastic performance in 2017's Phantom Thread, is wasted in a brief appearance as Millennium's publisher Erika Berger. While Salander has been established as a first-class hacker in previous films (as well as in the books on which they're based), here her hacking skills often reach levels of unbelievability. An example of this: in one scene Salander hacks into a car's systems while actively pursuing in another car. In the end we are left with a film that could have been greater than it is, but which was hobbled by a poor script filled with overly convenient contrivances. The film's one saving grace is Foy, who does the most with what she is given.

    While I enjoyed this film, it was a bit of a disappointment compared to the others in this series. As noted by other reviews, the film is haunted by an incredibly poor script. On the other hand, the action is pretty good if you can tolerate the long, poorly scripted scenes in between. The film tries too hard to surpise us with twists, some of which are predictable and others which are just flat. Some of the circumstances in the film are far-fetched. I don't mind suspending belief a bit, but this is neither a fantasy or a science fiction film, so there should be some reasonable level of reality. Several scenes are just ridiculously beyond reason and logic. Claire Foy is an excellent actress and I like watching her. She did the best she could with this script. It's unfortunate that the directors chose to portray her as a bit haggard and completely without sex appeal. Certainly, the character of Lisbeth Salander is intended to be a nonconforming ruffian, but Claire Foys' depiction of her is considerably rougher than Rooney Mara's and far less sexually-charged than Noomi Rapace's. This is a shame as Claire Foy does have sex appeal; she either chose or was not encouraged to to use it here. It's an acceptable addition to this series, but it's mediocre in comparison to it's predecessors.

    Comments

    Files

    Omikron Channel Group [ Read me ].txt 253 B
    Online Movies - www.OmikronChannel.eu.txt 317 B
    The Girl In The Spiders Web (2018) 2160p Bluray x264 10bit HDR DTS Omikron.mkv 9.9 GB
    The Girl In The Spiders Web (2018) 2160p Bluray x264 10bit HDR DTS Omikron. 9.9 GB
    Online Movies www.OmikronChannel.eu.txt 317 B

    Stream

    Downloading Seeding The Girl In The Spiders Web (2018) 2160p Bluray x264 10bit HDR DTS Omikron from to 0 peers.
    of
    0 b/s / ↗0 b/s