• 0
  • 0
  • 54
Anonymous Downloadondemand_video
  • The.Fortune.1975.720p.BluRay.x264-x0r
  • 1.7 GB
  • sub7
  • Fortune 1975 720p BluRay x264
  • English
  • HD
Warning! Use a VPN When Downloading Torrents!
Your IP Address is ,
Your Internet Provider can see when you download torrents! Hide your IP ADDRESS with a VPN
We strongly recommend Trust.Zone VPN to hide your torrenting. It's FREE!
DOWNLOAD VPN
57%

The Fortune (1975)

  • Comedy Crime Romance
  • Two bumbling hustlers in the 1920s attempt to gain the fortune of an heiress. Nothing will stop them . Not even murder.

    English
  • $3,500,000
  • Description

    The.Fortune.1975.720p.BluRay.x264-x0r

    ImDb: http://www.imdb.com/title/tt1577766](http://www.imdb.com/title/tt1577766)

    image

    **Complete name : The.Fortune.1975.720p.BluRay.x264-x0r.mkv
    Format : Matroska
    Format version : Version 4 / Version 2
    File size : 1.67 GiB
    Duration : 1 h 27 min
    Overall bit rate : 2 722 kb/s
    Movie name : The.Fortune.1975.720p.BluRay.x264-x0r
    Encoded date : UTC 2017-09-01 19:38:43
    Writing application : mkvmerge v7.7.0 ('Six Voices') 64bit built on Mar 1 2015 01:50:05
    Writing library : libebml v1.3.1 + libmatroska v1.4.2

    Video
    ID : 1
    Format : AVC
    Format/Info : Advanced Video Codec
    Format profile : [[email protected]
    Format settings, CABAC : Yes
    Format settings, ReFrames : 8 frames
    Codec ID : VMPEG4/ISO/AVC
    Duration : 1 h 27 min
    Bit rate : 2 560 kb/s
    Width : 1 280 pixels
    Height : 720 pixels
    Display aspect ratio : 16:9
    Frame rate mode : Variable
    Frame rate : 23.976 FPS
    Color space : YUV
    Chroma subsampling : 4:2:0
    Bit depth : 8 bits
    Scan type : Progressive
    Bits/(Pixel*Frame) : 0.116
    Stream size : 1.57 GiB (94%)
    Writing library : x264 core 142 r2389 956c8d8
    Encoding settings : cabac=1 / ref=8 / deblock=1:1:1 / analyse=0x3:0x133 / me=umh / subme=9 / psy=1 / psy
    rd=1.20:0.30 / mixedref=0 / merange=32 / chromame=1 / trellis=2 / 8x8dct=1 / cqm=0 / deadzone=21,11 / fastpskip=0 / chromaqpoffset=-4 / threads=12 / lookaheadthreads=1 / slicedthreads=0 / nr=0 / decimate=1 / interlaced=0 / bluraycompat=0 / constrainedintra=0 / bframes=4 / bpyramid=2 / badapt=2 / bbias=0 / direct=3 / weightb=1 / opengop=0 / weightp=2 / keyint=240 / keyintmin=24 / scenecut=40 / intrarefresh=0 / rclookahead=120 / rc=2pass / mbtree=1 / bitrate=2560 / ratetol=1.0 / qcomp=0.00 / qpmin=0 / qpmax=69 / qpstep=4 / cplxblur=20.0 / qblur=0.5 / vbvmaxrate=20000 / vbvbufsize=25000 / nalhrd=none / filler=0 / ip_ratio=1.10 / aq=1:1.10
    Language : English
    Default : Yes
    Forced : No
    Color range : Limited
    Color primaries : BT.709
    Transfer characteristics : BT.709
    Matrix coefficients : BT.709

    Audio
    ID : 2
    Format : AC-3
    Format/Info : Audio Coding 3
    Format settings, Endianness : Big
    Codec ID : A_AC3
    Duration : 1 h 27 min
    Bit rate mode : Constant
    Bit rate : 160 kb/s
    Channel(s) : 1 channel
    Channel positions : Front: C
    Sampling rate : 48.0 kHz
    Frame rate : 31.250 FPS (1536 spf)
    Bit depth : 16 bits
    Compression mode : Lossy
    Delay relative to video : -5 ms
    Stream size : 100 MiB (6%)
    Title : Mono
    Language : English
    Service kind : Complete Main
    Default : Yes
    Forced : No

    Text
    ID : 3
    Format : UTF-8
    Codec ID : S_TEXT/UTF8
    Codec ID/Info : UTF-8 Plain Text
    Duration : 1 h 26 min
    Bit rate : 64 b/s
    Count of elements : 1426
    Stream size : 41.1 KiB (0%)
    Language : English
    Default : Yes
    Forced : No

    Menu
    00:00:00.000 : :Chapter 1
    00:09:21.011 : :Chapter 2
    00:15:43.018 : :Chapter 3
    00:25:34.442 : :Chapter 4
    00:31:39.181 : :Chapter 5
    00:38:48.443 : :Chapter 6
    00:48:58.720 : :Chapter 7
    00:57:19.720 : :Chapter 8
    01:05:00.264 : :Chapter 9
    01:13:29.648 : :Chapter 10
    01:20:11.049 : :Chapter 11
    01:27:05.087 : :Chapter 12**

    image

    image

    Click To View Screenshot

    Click To View Screenshot

    Click To View Screenshot


    More at ibit.to
    And ibit.uno
    And ibit.ws

    Reviews

    Comments

    Files

    The.Fortune.1975.720p.BluRay.x264-x0r.fanart.jpg 360 kB
    The.Fortune.1975.720p.BluRay.x264-x0r.jpg 189 kB
    The.Fortune.1975.720p.BluRay.x264-x0r.mkv 1.7 GB
    The.Fortune.1975.720p.BluRay.x264-x0r.nfo 100 B

    Stream

    Downloading Seeding The.Fortune.1975.720p.BluRay.x264-x0r from to 0 peers.
    of
    0 b/s / ↗0 b/s