• 13
  • 4
  • done
Downloadondemand_video
  • The Forever Purge (2021) [Hindi Dub] 1080p WEB-DLRip Saicord.mkv
  • 2.9 GB
  • melbetcinema7
  • Forever Purge 2021 Hindi Dub 1080p WEB DLRip Saicord mkv
  • Hindi
  • HD 1080p
78%

The Forever Purge (2020)

  • Horror Action Science Fiction Thriller Adventure Western
  • All the rules are broken as a sect of lawless marauders decides that the annual Purge does not stop at daybreak and instead should never end as they chase a group of immigrants who they want to punish because of their harsh historical past.

    expand_more
    English
  • $18,000,000
  • Description

    image

    https://www.imdb.com/title/tt10327252

    image

    image

    image

    image

    Video

    ID                                       : 1

    Format                                   : AVC

    Format/Info                              : Advanced Video Codec

    Format profile                           : [email protected]

    Format settings                          : CABAC / 4 Ref Frames

    Format settings, CABAC                   : Yes

    Format settings, Reference frames        : 4 frames

    Codec ID                                 : V_MPEG4/ISO/AVC

    Duration                                 : 1 h 45 min

    Bit rate                                 : 3 741 kb/s

    Width                                    : 1 918 pixels

    Height                                   : 1 038 pixels

    Display aspect ratio                     : 1.85:1

    Frame rate mode                          : Constant

    Frame rate                               : 23.976 (24000/1001) FPS

    Color space                              : YUV

    Chroma subsampling                       : 4:2:0

    Bit depth                                : 8 bits

    Scan type                                : Progressive

    Bits/(Pixel*Frame)                       : 0.078

    Stream size                              : 2.75 GiB (95%)

    Default                                  : Yes

    Forced                                   : No

    Color range                              : Limited

    Color primaries                          : BT.709

    Transfer characteristics                 : BT.709

    Matrix coefficients                      : BT.709

    Audio

    ID                                       : 2

    Format                                   : AAC LC

    Format/Info                              : Advanced Audio Codec Low Complexity

    Codec ID                                 : A_AAC-2

    Duration                                 : 1 h 45 min

    Bit rate                                 : 192 kb/s

    Channel(s)                               : 2 channels

    Channel layout                           : L R

    Sampling rate                            : 48.0 kHz

    Frame rate                               : 46.875 FPS (1024 SPF)

    Compression mode                         : Lossy

    Stream size                              : 142 MiB (5%)

    Language                                 : Hindi

    Default                                  : Yes

    Forced                                   : No


    More at ibit.to
    And ibit.uno
    And ibit.am
    And ibit.ws

    Reviews

    In what is being billed as the final Purge movie; “The Forever Purge” has arrived and like elements of the prior films; gains traction from current events which have only made elements of the film more chilling seeing how the film was originally planned for July of 2020. Following the abolition of the Purge at the end of the “Purge Election Year”; the Holiday where all crime is legal for twelve hours is restored due to radical elements fueling fears of illegal immigration and the increase in crime immigrants will bring to the largely crime-free country. It is not made clear what happened with the new President who was a staunch critic of the Purge and only that it has been restored so citizens prepare for its return by arming up, barricading themselves, or paying for armed security in a fortified locale. It is against this backdrop that Adela (Ana de Reguera) has come to America fleeing the violence in her country as she enters illegally and finds work. Dylan Tucker (Josh Lucas) is a wealthy Rancher who along with his family hires friends and family of Adela though having some disdain for them and what they stand for. The Purge comes and goes with the main cast unaffected and as they prepare to resume their lives; roving bands of armed gangs have continued to Purge in violation of the law similar to those who took to the street in protest of the election and plans to eliminate the Purge years prior. This new group is well organized and has no issues taking on law enforcement and the military forcing Dylan, Adela, and their family and friends to flee for their lives. As the terror spreads, their only safety is to try to make it to Mexico who along with Canada has agreed to a six hour window to allow people to cross to escape the violence. As the danger mounts, the severity of the movement is known as the authorities seem powerless to control and stop what is called The Forever Purge. The film uses a slightly different formula than the prior films which focused mainly on a group of people trying to survive the night and the terrors that come with Purge Night. There is a greater emphasis on racism and Xenophobia this time around directed more towards foreigners than minorities and poverty-stricken individuals but the underlying message is the same. This time around we are given a longer timeframe of terror and more social commentary as there are elements from the film which seem eerily inspired by headlines past and present which makes the film even more chilling. While the story is rather bare and the characters do not get much development; the movie should give fans of the series what they look forward to although it lacks the dramatic tension of the previous films. In the end “The Forever Purge” is an interesting new chapter in the series but not one of the stronger entries and serves as an effective finale to the series should this turn out to be the final film. 3 stars out of 5

    Comments

    Files

    The Forever Purge (2021) [Hindi Dub] 1080p WEB-DLRip Saicord.mkv 2.9 GB

    Stream

    Downloading Seeding The Forever Purge (2021) [Hindi Dub] 1080p WEB-DLRip Saicord.mkv from to 0 peers.
    of
    0 b/s / ↗0 b/s