• 0
  • 0
  • 237
Sponsored Downloadondemand_video
  • The Expendables 2 2012 TS READNFO XViD - INSPiRAL
  • 1.4 GB
  • Silmarillion
  • Expendables 2012 READNFO XViD INSPiRAL
  • English
  • Divx/Xvid
62%

The Expendables 2 (2012)

  • Action Adventure Thriller
  • Mr. Church reunites the Expendables for what should be an easy paycheck, but when one of their men is murdered on the job, their quest for revenge puts them deep in enemy territory and up against an unexpected threat.

    expand_more
    English
  • $100,000,000
  • Description

    image

    http://www.imdb.com/title/tt1764651/

    Plot: Mr. Church reunites the Expendables for what should be an easy paycheck, but when one of their men is murdered on the job, their quest for revenge puts them deep in enemy territory and up against an unexpected threat.

    Director:
    Simon West

    Writers:
    Richard Wenk (screenplay), Sylvester Stallone (screenplay)

    Stars:

    Sylvester Stallone, Liam Hemsworth and Randy Couture

    Genres:

    Action | Adventure

    Format : AVI

    Format/Info : Audio Video Interleave

    File size : 1.38 GiB

    Duration : 1h 30mn

    Overall bit rate : 2 183 Kbps

    Writing library : VirtualDub build 32842/release

    Video

    ID : 0

    Format : MPEG-4 Visual

    Format profile : Advanced [email protected]
    Format settings, BVOP : 2

    Format settings, QPel : No

    Format settings, GMC : No warppoints

    Format settings, Matrix : Default (MPEG)

    Muxing mode : Packed bitstream

    Codec ID : XVID

    Codec ID/Hint : XviD

    Duration : 1h 30mn

    Bit rate : 2 043 Kbps

    Width : 720 pixels

    Height : 272 pixels

    Display aspect ratio : 2.647

    Frame rate : 29.970 fps

    Color space : YUV

    Chroma subsampling : 4:2:0

    Bit depth : 8 bits

    Scan type : Progressive

    Compression mode : Lossy

    Bits/(Pixel*Frame) : 0.348

    Stream size : 1.29 GiB (94%)

    Writing library : XviD 64

    Audio

    ID : 1

    Format : MPEG Audio

    Format version : Version 1

    Format profile : Layer 3

    Mode : Joint stereo

    Mode extension : MS Stereo

    Codec ID : 55

    Codec ID/Hint : MP3

    Duration : 1h 30mn

    Bit rate mode : Constant

    Bit rate : 128 Kbps

    Channel(s) : 2 channels

    Sampling rate : 48.0 KHz

    Compression mode : Lossy

    Stream size : 82.9 MiB (6%)

    Alignment : Split accross interleaves

    Interleave, duration : 33 ms (1.00 video frame)

    Interleave, preload duration : 500 ms

    http://darkscreen.info/?v=vlcsnabsb.png
    http://darkscreen.info/?v=vlcsnazkz.png
    http://darkscreen.info/?v=vlcsnaxpx.png
    http://darkscreen.info/?v=vlcsnabsb.png
    http://darkscreen.info/?v=vlcsnasvs.png


    More at ibit.to
    And ibit.uno
    And ibit.ws

    Reviews

    Jokes aren't funny. Scene logic is stupid. It´s a movie about guys with plastics in action!

    This is a movie that you watch for two things and two things only, the action and seeing your old favourite macho-guys on the screen again. For me, it was mostly the action since some of these old guys are really…well…getting old. At least Stallone, Dolph and “Schwarzy” starts to get well past the best before date for these type of roles. Chuck Norris and Jean-Claude Van Damme actually didn’t look that old and Bruce Willis had a role where his age didn’t make him seem too misplaced. This movie is pretty much like the first The Expendables, that is some minimal story to build a whole bunch of action against. And action there is, lots of it. All of it quite well done although not always very realistic of course. In general it seems like the so called “critics” liked this movie more than the previous one. This I do not understand since I thought they were pretty similar and if nothing else, that the previous one was the better of them with a slightly more coherent and plausible plot. For instance, in this movie, old buddies where popping up out of nowhere saving their behinds with some pretty “magic” display of firepower which felt like the scene was just put in there to get the actor into the movie…which it probably was. I’m not complaining though. I wanted and expected an all-out action movie and that was what I got. Loads of action, macho-dialogue and cheesy jokes (I quite liked Schwarzy’s comment about that Smart crapmobile that they drove around inside the airport). Oh, and of course loads of references to other movies (Rambo, Terminator…) and stuff as well. They even managed to get a quote from Duke Nuke’m in there. I enjoyed myself immensely when watching this movie.

    Comments

    Files

    The Expendables 2 2012 TS READNFO XViD - INSPiRAL.avi 1.4 GB
    SAMPLE.avi 33 MB
    the-expendables-2-poster2.jpg 180 kB
    Expendables2.jpg 158 kB
    The Expendables 2 2012 TS READNFO XViD - INSPiRAL.NFO 3.1 kB
    nfo.txt 2.6 kB

    Stream

    Downloading Seeding The Expendables 2 2012 TS READNFO XViD - INSPiRAL from to 0 peers.
    of
    0 b/s / ↗0 b/s