• 0
  • 0
  • 2
Sponsored Downloadondemand_video
  • The.Exorcist.III.1990.Original.DC.1080p.BluRay.H264.AAC-RARBG
  • 2.0 GB
  • Exorcist 1990 Original 1080p BluRay H264 RARBG
  • English
  • x264/1080
60%

The Exorcist III (1990)

  • Thriller Horror Mystery
  • Set fifteen years after the original film, The Exorcist III centers around the philosophical Lieutenant William F. Kinderman who is investigating a baffling series of murders around Georgetown that all contain the hallmarks of The Gemini, a deceased serial killer. It eventually leads him to a catatonic patient in a psychiatric hospital who has recently started to speak, claiming he is the The Gemini and detailing the murders, but bears a striking resemblance to Father Damien Karras.

    expand_more
    English

    Description

    Lt. Kinderman and Father Dyer cheer each other up on the anniversary of the death of their mutual friend| Father Damien Karras| by going to see "It's a WonderfulLife" at the local theater in Georgetown| near Washington D.C. But there's no cheering Kinderman while a particularly cruel and gruesome serial killer is at large.His murders| which involve torture| decapitation and the desecration of religious icons| is bad enough; but they also resemble those of the Gemini Killer| who hasbeen dead for fifteen years.

    image

    image

    image

    image

    image

    MediaInfo:

    Video

    ID                                       : 1

    Format                                   : AVC

    Format/Info                              : Advanced Video Codec

    Format profile                           : High@L4.1

    Format settings, CABAC                   : Yes

    Format settings, ReFrames                : 4 frames

    Codec ID                                 : avc1

    Codec ID/Info                            : Advanced Video Coding

    Duration                                 : 1h 44mn

    Bit rate                                 : 2 500 Kbps

    Width                                    : 1 920 pixels

    Height                                   : 1 040 pixels

    Display aspect ratio                     : 1.85:1

    Frame rate mode                          : Constant

    Frame rate                               : 23.976 (23976/1000) fps

    Color space                              : YUV

    Chroma subsampling                       : 4:2:0

    Bit depth                                : 8 bits

    Scan type                                : Progressive

    Bits/(Pixel*Frame)                       : 0.052

    Stream size                              : 1.83 GiB (92%)

    Writing library                          : x264 core 148 r2597M e86f3a1

    Encoding settings                        : cabac=1 / ref=4 / deblock=1:-1:-1 / analyse=0x3:0x113 / me=umh / subme=9 / psy=1 / psyrd=1.00:0.15 / mixedref=1 / merange=24 / chromame=1 / trellis=2 / 8x8dct=1 / cqm=0 / deadzone=21,11 / fastpskip=1 / chromaqpoffset=-3 / threads=32 / lookaheadthreads=4 / slicedthreads=0 / nr=0 / decimate=1 / interlaced=0 / bluraycompat=0 / constrainedintra=0 / bframes=3 / bpyramid=2 / badapt=2 / bbias=0 / direct=3 / weightb=1 / opengop=0 / weightp=2 / keyint=250 / keyintmin=25 / scenecut=40 / intrarefresh=0 / rclookahead=50 / rc=2pass / mbtree=1 / bitrate=2500 / ratetol=1.0 / qcomp=0.60 / qpmin=0 / qpmax=69 / qpstep=4 / cplxblur=20.0 / qblur=0.5 / vbvmaxrate=31250 / vbvbufsize=31250 / nalhrd=none / filler=0 / ipratio=1.40 / aq=3:1.00

    Encoded date                             : UTC 2016-11-02 06:43:58

    Tagged date                              : UTC 2016-11-02 06:43:58

    Audio

    ID                                       : 2

    Format                                   : AAC

    Format/Info                              : Advanced Audio Codec

    Format profile                           : LC

    Codec ID                                 : 40

    Duration                                 : 1h 44mn

    Bit rate mode                            : Constant

    Bit rate                                 : 224 Kbps

    Channel(s)                               : 2 channels

    Channel positions                        : Front: L R

    Sampling rate                            : 48.0 KHz

    Frame rate                               : 46.875 fps (1024 spf)

    Compression mode                         : Lossy

    Stream size                              : 168 MiB (8%)

    Language                                 : English

    Default                                  : Yes

    Alternate group                          : 1

    Encoded date                             : UTC 2016-11-02 06:43:58

    Tagged date                              : UTC 2016-11-02 06:43:58


    More at ibit.to
    And ibit.uno
    And ibit.ws

    Reviews

    Very good sequel retains the high standard Blatty's original screenplay set! In going through the original 'Exorcist' trilogy (I have the DVD 6-pack, with the two versions of the remarkable original, as well as the two recent prequels, so far unwatched), I was intrigued of seeing Oscar-winning writer William Peter Blatty's second stint behind the camera (for the record, I adored his 'The Ninth Configuration', done a decade prior), especially for the franchise that became his bread-and-butter (though I loved two films he earlier had co-wrote: 'A Shot in the Dark' and 'The Omega Man'). He once again does quite a credible job--both with the writing and in helming the picture. To me, it didn't matter much that Linda Blair wasn't involved--I like how it became a search for an already-dead serial killer--and I have been a great fan of George C. Scott in genre films since the likes of 'Dr. Strangelove' and 'The Changeling'. The scares and shocks were genuine, and the suspense and interest were there. It made me wish that even more sequels had been made, it was THAT good.

    Comments

    Files

    Subs/3_Eng.srt 97 kB
    RARBG.COM.mp4 993 kB
    The.Exorcist.III.1990.Original.DC.1080p.BluRay.H264.AAC-RARBG.nfo 3.9 kB
    Subs/2_Eng.srt 88 kB
    The.Exorcist.III.1990.Original.DC.1080p.BluRay.H264.AAC-RARBG.mp4 2.0 GB
    RARBG.COM.txt 34 B

    Stream

    Downloading Seeding The.Exorcist.III.1990.Original.DC.1080p.BluRay.H264.AAC-RARBG from to 0 peers.
    of
    0 b/s / ↗0 b/s