• 0
  • 0
  • done
Anonymous Downloadondemand_video
Warning! Use a VPN When Downloading Torrents!
Your IP Address is ,
Your Internet Provider can see when you download torrents! Hide your IP ADDRESS with a VPN
We strongly recommend hide.me VPN to hide your torrenting. It's FREE!
DOWNLOAD VPN
68%

The Croods (2013)

  • Action Adventure Animation Comedy Family Fantasy
  • The Croods is a prehistoric comedy adventure that follows the world's first family as they embark on a journey of a lifetime when the cave that has always shielded them from danger is destroyed. Traveling across a spectacular landscape, the Croods discover an incredible new world filled with fantastic creatures -- and their outlook is changed forever.

    expand_more
    English
  • $135,000,000
  • Description

    https://www.gopisahi.xyz/

    image

    The Croods 2013 x264 720p Esub BluRay 6.0 Dual Audio English Hindi GOPISAHI

    Format                         : Matroska

    Format version                 : Version 4

    File size                      : 915 MiB

    Duration                       : 1 h 38 min

    Overall bit rate               : 1 298 kb/s

    Movie name                     : The Croods 2013 GOPISAHI

    Video

    Format                         : AVC

    Format/Info                    : Advanced Video Codec

    Format profile                 : [email protected]

    Format settings                : CABAC / 16 Ref Frames

    Format settings, CABAC         : Yes

    Format settings, Reference fra : 16 frames

    Codec ID                       : V_MPEG4/ISO/AVC

    Duration                       : 1 h 38 min

    Bit rate                       : 899 kb/s

    Width                          : 1 280 pixels

    Height                         : 544 pixels

    Display aspect ratio           : 2.35:1

    Frame rate mode                : Constant

    Frame rate                     : 23.976 (24000/1001) FPS

    Color space                    : YUV

    Chroma subsampling             : 4:2:0

    Bit depth                      : 8 bits

    Scan type                      : Progressive

    Bits/(Pixel*Frame)             : 0.054

    Stream size                    : 634 MiB (69%)

    Title                          : GOPISAHI

    Writing library                : x264 core 157 r2935 545de2f

    Audio #1

    Format                         : AAC LC

    Duration                       : 1 h 38 min

    Bit rate                       : 192 kb/s

    Channel(s)                     : 6 channels

    Channel layout                 : L R C Cb Lb Rb

    Sampling rate                  : 48.0 kHz

    Frame rate                     : 46.875 FPS (1024 SPF)

    Compression mode               : Lossy

    Delay relative to video        : -17 ms

    Stream size                    : 136 MiB (15%)

    Title                          : GOPISAHI

    Language                       : Hindi

    Audio #2

    Format                         : AAC LC

    Duration                       : 1 h 38 min

    Bit rate                       : 192 kb/s

    Channel(s)                     : 6 channels

    Channel layout                 : L R C Cb Lb Rb

    Sampling rate                  : 48.0 kHz

    Frame rate                     : 46.875 FPS (1024 SPF)

    Compression mode               : Lossy

    Delay relative to video        : -21 ms

    Stream size                    : 136 MiB (15%)

    Title                          : GOPISAHI

    Language                       : English

    Text

    Format                         : PGS

    Codec ID                       : S_HDMV/PGS

    Codec ID/Info                  : Picture based subtitle format used on BDs/HD-DVDs

    Duration                       : 1 h 38 min

    Language                       : English

    Menu

    00:00:00.000                   : :00:00:00.000

    00:02:35.113                   : :00:02:34.988

    00:04:51.750                   : :00:04:51.750

    00:09:01.249                   : :00:09:01.249

    00:12:21.241                   : :00:12:21.115

    00:14:04.927                   : :00:14:04.802

    00:18:33.029                   : :00:18:33.029

    00:21:56.982                   : :00:21:56.982

    00:23:24.737                   : :00:23:24.737

    00:26:49.775                   : :00:26:49.775

    00:28:37.216                   : :00:28:37.132

    00:30:25.657                   : :00:30:25.657

    00:32:48.633                   : :00:32:48.633

    00:36:03.453                   : :00:36:03.370

    00:38:33.561                   : :00:38:33.561

    00:41:34.534                   : :00:41:34.534

    00:44:38.843                   : :00:44:38.843

    00:48:02.671                   : :00:48:02.630

    00:52:10.961                   : :00:52:10.961

    00:55:17.523                   : :00:55:17.481

    01:00:14.778                   : :01:00:14.778

    01:03:58.084                   : :01:03:58.084

    01:05:48.736                   : :01:05:48.736

    01:08:44.203                   : :01:08:44.037

    01:10:47.285                   : :01:10:47.285

    01:12:37.144                   : :01:12:37.144

    01:14:01.687                   : :01:14:01.646

    01:19:48.575                   : :01:19:48.575

    01:23:09.860                   : :01:23:09.860

    01:25:16.862                   : :01:25:16.737

    01:28:04.321                   : :01:28:04.321

    01:30:02.314                   : :01:30:02.230

    image

    image

    image


    More at ibit.to
    And ibit.uno
    And ibit.ws

    Reviews

    Comments

    Files

    The Croods 2013 x264 720p Esub BluRay 6.0 Dual Audio English Hindi GOPISAHI.mkv 915 MB

    Stream

    Downloading Seeding The Croods 2013 x264 720p Esub BluRay 6.0 Dual Audio English Hindi GOPISAHI.mkv from to 0 peers.
    of
    0 b/s / ↗0 b/s