• 7
  • 2
  • 6,368
  • 2
  • done
Sponsored Downloadondemand_video
  • The.Commuter.2018.1080p.WEBRip.DD5.1.x264-FGT
  • 4.6 GB
  • SeekNDstroy
  • Commuter 2018 1080p WEBRip x264 DD5 FGT
  • English
  • HD
62%

The Commuter (2018)

  • Action Thriller
  • A businessman, on his daily commute home, gets unwittingly caught up in a criminal conspiracy that threatens not only his life but the lives of those around him.

    expand_more
    English
  • $30,000,000
  • Description

    Now a hard-working life insurance salesman and a caring family man| the former police officer| Michael MacCauley| has taken the commuter rail to New York for thepast ten years. But| unexpectedly| things will take a turn for the worse| when on one of his daily journeys| the cryptic passenger| Joanna| makes Michael a generousand tempting offer to locate a single commuter or face grave consequences. Is this a sick joke| or is this indeed a serious situation? As Michael races against theclock to solve this wicked conundrum| everyone aboard is a suspect| in a deal where there's definitely more than meets the eye. Can he decide in time who's the one?

    http://imdb.com/title/tt1590193/

    image

    image

    image

    MediaInfo:

    Video

    ID                                       : 1

    Format                                   : AVC

    Format/Info                              : Advanced Video Codec

    Format profile                           : Main@L4

    Format settings                          : CABAC / 4 Ref Frames

    Format settings, CABAC                   : Yes

    Format settings, ReFrames                : 4 frames

    Codec ID                                 : V_MPEG4/ISO/AVC

    Duration                                 : 1 h 44 min

    Bit rate                                 : 5 976 kb/s

    Width                                    : 1 920 pixels

    Height                                   : 1 080 pixels

    Display aspect ratio                     : 16:9

    Frame rate mode                          : Constant

    Frame rate                               : 23.976 (24000/1001) FPS

    Color space                              : YUV

    Chroma subsampling                       : 4:2:0

    Bit depth                                : 8 bits

    Scan type                                : Progressive

    Bits/(Pixel*Frame)                       : 0.120

    Stream size                              : 4.36 GiB (94%)

    Title                                    : The.Commuter.2018.1080p.WEBRip.DD5.1.x264-FGT

    Default                                  : Yes

    Forced                                   : No

    Color range                              : Limited

    Color primaries                          : BT.601 NTSC

    Transfer characteristics                 : BT.709

    Matrix coefficients                      : BT.601

    Audio

    ID                                       : 2

    Format                                   : AC-3

    Format/Info                              : Audio Coding 3

    Codec ID                                 : A_AC3

    Duration                                 : 1 h 44 min

    Bit rate mode                            : Constant

    Bit rate                                 : 384 kb/s

    Channel(s)                               : 6 channels

    Channel positions                        : Front: L C R, Side: L R, LFE

    Sampling rate                            : 48.0 kHz

    Frame rate                               : 31.250 FPS (1536 SPF)

    Bit depth                                : 16 bits

    Compression mode                         : Lossy

    Stream size                              : 287 MiB (6%)

    Title                                    : The.Commuter.2018.1080p.WEBRip.DD5.1.x264-FGT

    Language                                 : English

    Service kind                             : Complete Main

    Default                                  : Yes

    Forced                                   : No

    Menu

    00:00:00.000                             : en:Chapter 1

    00:07:39.042                             : en:Chapter 2

    00:16:40.583                             : en:Chapter 3

    00:25:24.606                             : en:Chapter 4

    00:33:20.582                             : en:Chapter 5

    00:42:10.111                             : en:Chapter 6

    00:52:17.217                             : en:Chapter 7

    00:59:50.170                             : en:Chapter 8

    01:09:22.241                             : en:Chapter 9

    01:18:26.285                             : en:Chapter 10

    01:26:12.751                             : en:Chapter 11

    01:34:06.224                             : en:Chapter 12


    More at ibit.to
    And ibit.uno
    And ibit.ws

    Reviews

    _It's as dull as my usual ride in a usual train going home._

    Neeson throwing himself about the train-setting is engaging enough to hold your attention for about an hour. Unfortunately, _The Commuter_ is an hour and fortyfive minutes long. _Final rating:★★½ - Had a lot that appealed to me, didn’t quite work as a whole._

    Comments

    -

    I will miss this when it's gone!

    1 year ago

    where's CIA agent Nic Allore and Brandy Cage? usually they comment first

    Files

    RARBG.txt 30 B
    The.Commuter.2018.1080p.WEBRip.DD5.1.x264-FGT.mkv 4.6 GB
    The.Commuter.2018.1080p.WEBRip.DD5.1.x264FGT -
    The.Commuter.2018.1080p.WEBRip.DD5.1.x264FGT.mkv 4.6 GB

    Stream

    Downloading Seeding The.Commuter.2018.1080p.WEBRip.DD5.1.x264-FGT from to 0 peers.
    of
    0 b/s / ↗0 b/s