• 10
  • 0
Sponsored Downloadondemand_video
78%

The Chaser (2008)

  • Crime Drama Thriller
  • Joong-ho is a dirty detective turned pimp in financial trouble as several of his girls have recently disappeared without clearing their debts. While trying to track them down, he finds a clue that the vanished girls were all called up by the same client whom one of his girls is meeting with right now.

    expand_more
    Korean

    Description

    image

    https://www.imdb.com/title/tt1190539/

    Encode Screenshots (Click for full quality)

    imageimageimageimageimageimageimageimage

    Media Information

    General

    Format                                   : Matroska

    Format version                           : Version 4 / Version 2

    File size                                : 4.13 GiB

    Duration                                 : 2 h 4 min

    Overall bit rate                         : 4 735 kb/s

    Encoded date                             : UTC 2018-11-21 06:33:33

    Writing application                      : mkvmerge v20.0.0 ('I Am The Sun') 64-bit

    Writing library                          : libebml v1.3.5 + libmatroska v1.4.8

    Writing frontend                         : StaxRip v1.7.0.6

    Video

    ID                                       : 1

    Format                                   : HEVC

    Format/Info                              : High Efficiency Video Coding

    Format profile                           : Main [email protected]@Main

    Codec ID                                 : V_MPEGH/ISO/HEVC

    Duration                                 : 2 h 4 min

    Bit rate                                 : 4 249 kb/s

    Width                                    : 1 920 pixels

    Height                                   : 816 pixels

    Display aspect ratio                     : 2.35:1

    Frame rate mode                          : Constant

    Frame rate                               : 23.976 (24000/1001) FPS

    Color space                              : YUV

    Chroma subsampling                       : 4:2:0

    Bit depth                                : 10 bits

    Bits/(Pixel*Frame)                       : 0.113

    Stream size                              : 3.71 GiB (90%)

    Writing library                          : x265 2.9+4-471726d3a046:[Windows][MSVC 1900][64 bit] 10bit

    Encoding settings                        : cpuid=1111039 / frame-threads=4 / numa-pools=16 / wpp / no-pmode / no-pme / no-psnr / no-ssim / log-level=2 / input-csp=1 / input-res=1920x816 / interlace=0 / total-frames=179712 / level-idc=0 / high-tier=1 / uhd-bd=0 / ref=4 / no-allow-non-conformance / no-repeat-headers / annexb / no-aud / no-hrd / info / hash=0 / no-temporal-layers / open-gop / min-keyint=23 / keyint=250 / gop-lookahead=0 / bframes=8 / b-adapt=2 / b-pyramid / bframe-bias=0 / rc-lookahead=60 / lookahead-slices=4 / scenecut=40 / radl=0 / no-intra-refresh / ctu=64 / min-cu-size=8 / rect / no-amp / max-tu-size=32 / tu-inter-depth=1 / tu-intra-depth=1 / limit-tu=0 / rdoq-level=2 / dynamic-rd=0.00 / no-ssim-rd / signhide / no-tskip / nr-intra=0 / nr-inter=0 / no-constrained-intra / strong-intra-smoothing / max-merge=3 / limit-refs=3 / limit-modes / me=3 / subme=5 / merange=57 / temporal-mvp / weightp / no-weightb / no-analyze-src-pics / deblock=-3:-3 / no-sao / no-sao-non-deblock / rd=4 / no-early-skip / rskip / no-fast-intra / no-tskip-fast / no-cu-lossless / no-b-intra / no-splitrd-skip / rdpenalty=0 / psy-rd=2.00 / psy-rdoq=1.00 / no-rd-refine / no-lossless / cbqpoffs=0 / crqpoffs=0 / rc=abr / bitrate=4250 / qcomp=0.60 / qpstep=4 / stats-write=0 / stats-read=2 / cplxblur=20.0 / qblur=0.5 / ipratio=1.40 / pbratio=1.30 / aq-mode=3 / aq-strength=1.00 / cutree / zone-count=0 / no-strict-cbr / qg-size=32 / no-rc-grain / qpmax=69 / qpmin=0 / no-const-vbv / sar=0 / overscan=0 / videoformat=5 / range=0 / colorprim=2 / transfer=2 / colormatrix=2 / chromaloc=0 / display-window=0 / max-cll=0,0 / min-luma=0 / max-luma=1023 / log2-max-poc-lsb=8 / vui-timing-info / vui-hrd-info / slices=1 / no-opt-qp-pps / no-opt-ref-list-length-pps / no-multi-pass-opt-rps / scenecut-bias=0.05 / no-opt-cu-delta-qp / no-aq-motion / no-hdr / no-hdr-opt / no-dhdr10-opt / no-idr-recovery-sei / analysis-reuse-level=5 / scale-factor=0 / refine-intra=0 / refine-inter=0 / refine-mv=0 / no-limit-sao / ctu-info=0 / no-lowpass-dct / refine-mv-type=0 / copy-pic=1 / max-ausize-factor=1.0 / no-dynamic-refine / no-single-sei

    Default                                  : Yes

    Forced                                   : No

    Audio #1

    ID                                       : 2

    Format                                   : AAC

    Format/Info                              : Advanced Audio Codec

    Format profile                           : LC

    Codec ID                                 : A_AAC

    Duration                                 : 2 h 4 min

    Bit rate                                 : 384 kb/s

    Channel(s)                               : 6 channels

    Channel positions                        : Front: L C R, Side: L R, LFE

    Sampling rate                            : 48.0 kHz

    Frame rate                               : 46.875 FPS (1024 spf)

    Compression mode                         : Lossy

    Delay relative to video                  : 20 ms

    Stream size                              : 348 MiB (8%)

    Language                                 : Korean

    Default                                  : Yes

    Forced                                   : No

    Audio #2

    ID                                       : 3

    Format                                   : AAC

    Format/Info                              : Advanced Audio Codec

    Format profile                           : HE-AAC / LC

    Codec ID                                 : A_AAC

    Duration                                 : 2 h 4 min

    Bit rate                                 : 80.0 kb/s

    Channel(s)                               : 2 channels

    Channel positions                        : Front: L R

    Sampling rate                            : 48.0 kHz / 24.0 kHz

    Frame rate                               : 23.438 FPS (1024 spf)

    Compression mode                         : Lossy

    Delay relative to video                  : 40 ms

    Stream size                              : 71.5 MiB (2%)

    Language                                 : Korean

    Default                                  : No

    Forced                                   : No

    Subtitle #1

    ID                                       : 4

    Format                                   : PGS

    Muxing mode                              : zlib

    Codec ID                                 : S_HDMV/PGS

    Codec ID/Info                            : Picture based subtitle format used on BDs/HD-DVDs

    Duration                                 : 1 h 57 min

    Bit rate                                 : 27.2 kb/s

    Count of elements                        : 2611

    Stream size                              : 22.8 MiB (1%)

    Language                                 : Korean

    Default                                  : No

    Forced                                   : No

    Subtitle #2

    ID                                       : 5

    Format                                   : PGS

    Muxing mode                              : zlib

    Codec ID                                 : S_HDMV/PGS

    Codec ID/Info                            : Picture based subtitle format used on BDs/HD-DVDs

    Duration                                 : 1 h 58 min

    Bit rate                                 : 28.1 kb/s

    Count of elements                        : 2682

    Stream size                              : 23.9 MiB (1%)

    Language                                 : English

    Default                                  : No

    Forced                                   : No

    Menu

    00:00:00.000                             : en:Chapter 01

    00:04:05.536                             : en:Chapter 02

    00:16:17.685                             : en:Chapter 03

    00:28:38.758                             : en:Chapter 04

    00:42:49.191                             : en:Chapter 05

    00:54:58.920                             : en:Chapter 06

    01:06:12.176                             : en:Chapter 07

    01:21:16.955                             : en:Chapter 08

    01:33:34.609                             : en:Chapter 09

    01:45:05.674                             : en:Chapter 10

    01:50:15.025                             : en:Chapter 11

    02:01:22.483                             : en:Chapter 12

    Source Information

    Release : Untouched Bluray

    image

    Note from QxR:

    Whilst we are happy for our releases to be re-posted on a platform we aren't on, please do so in an 'as-is' format. We ask that you do not create a new torrent, include all descriptions you see above including the QxR logo, tags, notes and screenshots. If you'd like to become a permanent poster on a website we don't post to, feel free to get in contact with a QxR member.


    More at ibit.to
    And ibit.uno
    And ibit.ws

    Reviews

    Comments

    Files

    The Chaser (2008) (1080p BluRay x265 Silence).mkv 4.1 GB

    Stream

    Downloading Seeding The Chaser (2008) (1080p BluRay x265 HEVC 10bit AAC 5.1 Korean Silence) from to 0 peers.
    of
    0 b/s / ↗0 b/s