• 6
  • 3
  • 264
  • done
Anonymous Downloadondemand_video
  • The Brokenwood Mysteries Season 2 RB58
  • 3.7 GB
  • RedBaron58
  • Brokenwood Mysteries Season RB58
  • English
  • SD
Warning! Use a VPN When Downloading Torrents!
Your IP Address is ,
Your Internet Provider can see when you download torrents! Hide your IP ADDRESS with a VPN
We strongly recommend hide.me VPN to hide your torrenting. It's FREE!
DOWNLOAD VPN
79%

The Brokenwood Mysteries: Season 2(2015)

  • 2
  • Mystery Drama Crime
  • In a seemingly quiet country town the newest resident, Detective Inspector Mike Shepherd, finds that murder lurks in even the most homely location.

    expand_more
    English
    • 1
    • 2
    • 3
    • 4

    Description

    The Brokenwood Mysteries S02 x264 mp4

    aka Brokenwood

    https://www.imdb.com/title/tt3640276/

    Thank you for your kind comments and feedback on my other torrents, your feedback is welcome.

    About the Series:

    Detective Senior Sergeant Mike Shepherd is sent from Auckland to Brokenwood to assist the
    local police with a possible murder investigation. Subsequent circumstances have his superior
    assign Mike to stay on indefinitely.

    Quirky New Zealand crime drama with a touch of humour.

    Episode 1: "Leather & Lace"

    The Brokenwood rugby club's coach is found dead and naked, tied to the goalposts.
    A second body is soon discovered.

    Episode 2: "To Die or Not to Die"

    A cast member in The Brokenwood Theatre Society's production of Hamlet collapses and dies
    after a performance. But the smell of poison leads Shepherd to believe that he has not
    "shuffled off this mortal coil" without help.

    Episode 3: "Catch of the Day"

    When a severed human hand is discovered in a crayfisherman's catch, Shepherd and his team
    need to discover whose it is and whether its owner is still alive.

    Episode 4: "Blood Pink"

    A touring musician is found electrocuted in what initially looks to be a suicide.
    As Shepherd investigates, he finds things are murkier than they first appeared.

    I hope you enjoy.

    image

    Technical: (All episodes are encoded to the same settings)

    General

    Complete name : D:The Brokenwood Mysteries S02The Brokenwood Mysteries S02E01 - Leather and Lace x264 RB58.mp4

    Format : MPEG-4

    Format profile : Base Media

    Codec ID : isom (isom/iso2/avc1/mp41)

    File size : 959 MiB

    Duration : 1 h 28 min

    Overall bit rate : 1 521 kb/s

    Writing application : Lavf54.63.104

    Video

    ID : 1

    Format : AVC

    Format/Info : Advanced Video Codec

    Format profile : [email protected]
    Format settings, CABAC : Yes

    Format settings, ReFrames : 4 frames

    Codec ID : avc1

    Codec ID/Info : Advanced Video Coding

    Duration : 1 h 28 min

    Bit rate : 1 400 kb/s

    Width : 832 pixels

    Height : 468 pixels

    Display aspect ratio : 16:9

    Frame rate mode : Constant

    Frame rate : 25.000 FPS

    Color space : YUV

    Chroma subsampling : 4:2:0

    Bit depth : 8 bits

    Scan type : Progressive

    Bits/(Pixel*Frame) : 0.144

    Stream size : 882 MiB (92%)

    Writing library : x264 core 123 r2189 35cf912

    Encoding settings : cabac=1 / ref=3 / deblock=1:0:0

    Audio

    ID : 2

    Format : AAC

    Format/Info : Advanced Audio Codec

    Format profile : LC

    Codec ID : 40

    Duration : 1 h 28 min

    Bit rate mode : Constant

    Bit rate : 112 kb/s

    Channel(s) : 2 channels

    Channel positions : Front: L R

    Sampling rate : 48.0 kHz

    Frame rate : 46.875 FPS (1024 spf)

    Compression mode : Lossy

    Stream size : 70.6 MiB (7%)


    More at ibit.to
    And ibit.uno
    And ibit.am
    And ibit.ws

    Reviews

    Comments

    2 years ago

    Tu meke! Thanx RedBaron58.

    2 years ago

    Any chance on uploading series one of brokenwood for us please.

    Files

    The Brokenwood Mysteries S02/The Brokenwood Mysteries S02E04 - Blood Pink x264 RB58.mp4 961 MB
    The Brokenwood Mysteries S02/The Brokenwood Mysteries S02E01 - Leather and Lace x264 RB58.mp4 959 MB
    The Brokenwood Mysteries S02/Torrent Downloaded From Katcr.co - Kickasstorrents.txt -
    The Brokenwood Mysteries S02/The Brokenwood Mysteries S02E03 - Catch of the Day x264 RB58.mp4 946 MB
    The Brokenwood Mysteries S02/The Brokenwood Mysteries S02E02 - To Die or Not to Die x264 RB58.mp4 956 MB

    Stream

    Downloading Seeding The Brokenwood Mysteries Season 2 RB58 from to 0 peers.
    of
    0 b/s / ↗0 b/s