• 0
  • 0
  • 44
Sponsored Downloadondemand_video
  • The Bridge (US) S01E01 720p x264 [MKV,AC3,5.1] Ehhhh
  • 668 MB
  • Ehhhhtozebec
  • Bridge S01E01 720p x264 Ehhhh
  • English
  • HD
85%

The Bridge: Episode 1(2011)

  • 1 1
  • Crime Mystery
  • The chair of the Malmo city council is found dead right on the Danish-Swedish border on the Øresund bridge between Copenhagen and Malmo - the corpse cut in half at the waistline. Detective Saga Norén of Malmo CID is applied to the case and soon learns that the lower half of the corpse belongs to a yet unknown Danish woman. She is forced to team up with her Danish colleague Martin Rohde, who is slightly irritated by her unusual manners. At the same time, Göran Söringer is brought to Copenhagen's Rigshospitalet to receive a heart transplant.

    expand_more
    Swedish

    Description

    image

    Set on the border between El Paso and Juarez, The Bridge centers on two detectives, one from the United States and one from Mexico, who must work together to hunt down a serial killer operating on both sides of the U.S.-Mexican border. Executive Producers Meredith Stiehm (Homeland) and novelist and television writer/producer Elwood Reid adapted The Bridge for American television from the international hit series Bron, which was set on the border of Denmark and Sweden.

    In The Bridge, Demián Bichir stars in the role of “Marco Ruiz,” a homicide investigator for the state of Chihuahua, Mexico living in Ciudad Juárez. A family man, Marco is one of the last good men in a corrupt and apathetic police force that is outgunned by the powerful drug cartels. He’s sharp, charming, and observant and painfully aware that his city is in a state of chaos. When a body is dumped on the bridge that spans the El Paso-Ciudad Juárez border, Ruiz is forced to work with his American counterpart, “Detective Sonya Cross.”Diane Kruger stars as “Detective Sonya Cross,” a dogged cop who has an undiagnosed disorder that falls on the autism spectrum. Cross is shockingly candid and calls the world as she sees it, which can be off-putting to her colleagues, but she is also extremely effective at her job.

    Ted Levine plays “Lieutenant Hank Wade,” a member of Detective Cross’s team at the El Paso Police Department who is a veteran cop with a weathered, cowboy swagger. He is not surprised by anything that human beings will do to one another, but he’s utterly baffled by the office coffeemaker. Hank knows that Sonya communication skills are challenged, and repeatedly has to advise her how to work more diplomatically with others. Annabeth Gish plays “Charlotte Millwright,” a wealthy ranch wife suddenly widowed when her older husband Karl suffers a massive heart attack while on the Mexican side of the border. A sheltered woman with a ranch to run, Charlotte quickly learns that her late husband has many shocking secrets. Thomas M. Wright plays “Steven Linder,” a wolf of a man who is no stranger to the dark and jumbled chaos of Juárez.

    Matthew Lillard plays “Daniel Frye,” a cocky reporter with the El Paso Times whose hard partying ways have taken a toll on his once promising journalism career.

    image

    General

    Unique ID : 228248458589285410481967388040458968647 (0xABB70DDA87597A11A5712274B3A89E47)

    Complete name : J:Downers┬╡torrent000 TVThe BridgeThe Bridge (US) Season 1 - COMPLETE 720p x264 [MKV,AC3,5.1] EhhhhThe Bridge (US) S01E01 720p x264 [MKV,AC3,5.1] EhhhhThe Bridge US S01E01 - Pilot - Ehhhh.mkv

    Format : Matroska

    Format version : Version 4 / Version 2

    File size : 636 MiB

    Duration : 1h 3mn

    Overall bit rate : 1 393 Kbps

    Encoded date : UTC 2013-07-19 21:52:23

    Writing application : mkvmerge v6.2.0 ('Promised Land') built on Apr 28 2013 12:22:01

    Writing library : libebml v1.3.0 + libmatroska v1.4.0

    Video

    ID : 1

    Format : AVC

    Format/Info : Advanced Video Codec

    Format profile : [email protected]
    Format settings, CABAC : Yes

    Format settings, ReFrames : 14 frames

    Codec ID : V_MPEG4/ISO/AVC

    Duration : 1h 3mn

    Bit rate : 1 010 Kbps

    Width : 1 280 pixels

    Height : 720 pixels

    Display aspect ratio : 16:9

    Frame rate mode : Constant

    Frame rate : 23.976 fps

    Color space : YUV

    Chroma subsampling : 4:2:0

    Bit depth : 8 bits

    Scan type : Progressive

    Bits/(Pixel*Frame) : 0.046

    Stream size : 448 MiB (70%)

    Writing library : x264 core 130 r2273 b3065e6

    Encoding settings : cabac=1 / ref=15 / deblock=1:0:0 / analyse=0x3:0x113 / me=umh / subme=8 / psy=1 / psyrd=1.00:0.00 / mixedref=1 / merange=16 / chromame=1 / trellis=1 / 8x8dct=1 / cqm=0 / deadzone=21,11 / fastpskip=1 / chromaqpoffset=-2 / threads=3 / lookaheadthreads=1 / slicedthreads=0 / nr=0 / decimate=1 / interlaced=0 / bluraycompat=0 / constrainedintra=0 / bframes=7 / bpyramid=1 / badapt=2 / bbias=0 / direct=3 / weightb=1 / opengop=0 / weightp=2 / keyint=250 / keyintmin=25 / scenecut=40 / intrarefresh=0 / rclookahead=50 / rc=abr / mbtree=1 / bitrate=1010 / ratetol=1.0 / qcomp=0.60 / qpmin=0 / qpmax=69 / qpstep=4 / ip_ratio=1.40 / aq=1:1.00

    Default : Yes

    Forced : No

    Audio

    ID : 2

    Format : AC-3

    Format/Info : Audio Coding 3

    Mode extension : CM (complete main)

    Format settings, Endianness : Big

    Codec ID : A_AC3

    Duration : 1h 3mn

    Bit rate mode : Constant

    Bit rate : 384 Kbps

    Channel(s) : 6 channels

    Channel positions : Front: L C R, Side: L R, LFE

    Sampling rate : 48.0 KHz

    Bit depth : 16 bits

    Compression mode : Lossy

    Stream size : 175 MiB (28%)

    Default : Yes

    Forced : No

    image


    More at ibit.to
    And ibit.uno
    And ibit.ws

    Reviews

    Comments

    Files

    The Bridge US S01E01 - Pilot - Ehhhh.mkv 636 MB
    The Bridge US S01E01 Media Info - Ehhhh.nfo 3.7 kB
    The Bridge US S01E01 Screenshot - Ehhhh.png 1.0 MB

    Stream

    Downloading Seeding The Bridge (US) S01E01 720p x264 [MKV,AC3,5.1] Ehhhh from to 0 peers.
    of
    0 b/s / ↗0 b/s