• 0
  • 5
  • done
Anonymous Downloadondemand_video
  • The Bold Type Season 3 WEB-DLRip
  • 6.7 GB
  • ruddle
  • Bold Type Season WEB DLRip
  • Зарубежные сериалы
Warning! Use a VPN When Downloading Torrents!
Your IP Address is ,
Your Internet Provider can see when you download torrents! Hide your IP ADDRESS with a VPN
We strongly recommend Trust.Zone VPN to hide your torrenting. It's FREE!
DOWNLOAD VPN
66%

The Bold Type: Season 3(2019)

  • 3
  • Comedy Drama
  • Jane, Kat and Sutton are back in New York City where they are all dealing with the aftermath of some major decisions made in Paris. Meanwhile, Scarlet Magazine is undergoing some changes, with new staffers brought on board who bound to ruffle some feathers.

    expand_more
    English

    Description

    Жирным шрифтом / С большой буквы / The Bold Type

    image

    Год выпуска:

    2019

    Страна:

    США

    Жанр:

    драма

    Продолжительность:

    ~ 00:45:00

    Перевод:

    Любительский (многоголосый закадровый)

    (TVShows)

    Субтитры:

    нет

    Режиссёр:

    Гэри Фледер / Gary Fleder


    В ролях:

    Кейти Стивенс, Аиша Ди, Меган Фой, Сэм Пейдж, Мэтт Уорд, Мелора Хардин, Николь Бушери, Адам Каприоло, Стивен Конрад Мур, Ева Авила, Стефани Коста

    Описание

    :
    Сюжет сериала расскажет о первых шагах в индустрии главного редактора журнала Cosmopolitan и исполнительного директора по контенту Hearst Magazine Джоанны Коулз. В центре внимания проекта оказываются три девушки, представляющие один современный модный журнал. Героини живут в Нью-Йорке и наслаждаются своим оглушительным успехом на работе. Однако в личной жизни пока что все не так хорошо и радужно, как могло бы показаться. Главные героини стремятся за всеми новинками моды, забывая о естественности и природной красоте. Нередко на их пути попадаются состоятельные мужчины, которых волнует лишь их светский образ. Однако главные героини начинают понимать, что в жизни самое главное не карьера. Да и дружба не должна уходить на второе место! Посмотрим, получится ли им покорить мужчин своей мечты.


    Качество:

    WEB-DLRip

    Формат:

    AVI

    Видео кодек:

    XviD

    Видео:

    720x400 (1.80:1), 23.976 fps, XviD build 73 ~2000 kbps avg, 0.29 bit/pixel

    Аудио Rus:

    48 kHz, AC3 Dolby Digital, 3/2 (L,C,R,l,r) + LFE ch, ~384 kbps


    Рип : Ruddle

    Реклама отсутствует


    image image image


    Все раздачи сериала


    MI

    Код:

    Общее
    Полное имя                               : D:The Bold Type Season 3 WEB-DLRipThe.Bold.Type.s03e01.WEB-DLRip.RGzsRutracker.avi
    Формат                                   : AVI
    Формат/Информация                        : Audio Video Interleave
    Размер файла                             : 720 Мбайт
    Продолжительность                        : 42 м. 3 с.
    Общий поток                              : 2393 Кбит/сек
    Программа кодирования                    : VirtualDubMod 1.5.10.3 | www.virtualdub-fr.org || (build 2550/release)
    Библиотека кодирования                   : VirtualDubMod build 2550/release

    Видео
    Идентификатор                            : 0
    Формат                                   : MPEG-4 Visual
    Профиль формата                          : Advanced [email protected]
    Настройки формата                        : BVOP2
    Параметр BVOP формата                    : 2
    Параметр QPel формата                    : Нет
    Параметр GMC формата                     : Без точки перехода
    Параметр матрицы формата                 : Default (MPEG)
    Идентификатор кодека                     : XVID
    Идентификатор кодека/Подсказка           : XviD
    Продолжительность                        : 42 м. 3 с.
    Битрейт                                  : 2000 Кбит/сек
    Ширина                                   : 720 пикселей
    Высота                                   : 400 пикселей
    Соотношение сторон                       : 16:9
    Частота кадров                           : 23,976 (24000/1001) кадра/сек
    Цветовое пространство                    : YUV
    Субдискретизация насыщенности            : 4:2:0
    Битовая глубина                          : 8 бит
    Тип развёртки                            : Прогрессивная
    Метод сжатия                             : С потерями
    Бит/(Пиксели*Кадры)                      : 0.290
    Размер потока                            : 602 Мбайт (84%)
    Библиотека кодирования                   : XviD 73

    Аудио
    Идентификатор                            : 1
    Формат                                   : AC-3
    Формат/Информация                        : Audio Coding 3
    Идентификатор кодека                     : 2000
    Продолжительность                        : 42 м. 3 с.
    Вид битрейта                             : Постоянный
    Битрейт                                  : 384 Кбит/сек
    Каналы                                   : 6 каналов
    Расположение каналов                     : Front: L C R, Side: L R, LFE
    Частота                                  : 48,0 КГц
    Частота кадров                           : 31,250 кадров/сек (1536 SPF)
    Битовая глубина                          : 16 бит
    Метод сжатия                             : С потерями
    Размер потока                            : 116 Мбайт (16%)
    Выравнивание                             : Разделение по промежуткам
    Продолжительность промежутка             : 42  мс. (1,00 видеокадр)
    Время предзагрузки промежутка            : 500  мс.
    ServiceKind/String                       : Complete Main

    Скриншоты

    imageimageimageimageimageimage

    Внимание! Раздача ведётся путём добавления новых серий!

    Внимание! Раздача ведётся путём добавления новых серий; при каждом добавлении создётся новый торрент. Чтобы начать докачку новой серии, пользователям необходимо сделать следующее: (1) остановить скачивание, (2) удалить старый торрент у себя из клиента (старые серии удалять не надо), (3) скачать новый торрент и запустить его у себя в клиенте вместо старого, при этом указать клиенту путь в старую папку куда и должно происходить скачивание новых серий.

    Ваш клиент при этом должен произвести хеширование (проверку) старой папки (если не производит сам - помогите ему сделать это), и будет докачивать только те серии которых у вас ещё нет. Старые серии при этом не удаляются, а продолжают раздаваться!

    Eсли вы уже удалили старые серии, то предотвратить повторную закачку старых серий можно, отжав галочку в соответсвующих местах при запуске нового торрента.
    image Как закачать отдельный файл из торрента или докачать ранее пропущенные файлы торрента!

    Релиз группы

    :

    image


    More at ibit.to
    And ibit.uno
    And ibit.ws

    Reviews

    Comments

    5 months ago

    Просьба ко всем, при перезалитии раздач на другие трекеры (сайты) , имеющих в названии файлов надпись - RGzsRutracker, обязательно размещать в оформлении этот баннер: Всем спасибо за понимание. Приятного просмотра.

    5 months ago

    Цитата: С большой буквы Добавил название с кинопоиска. √ проверено

    5 months ago

    Celta88 писал(а): 77215814 Цитата: С большой буквы Добавил название с кинопоиска. √ проверено спасибо

    5 months ago

    +2

    5 months ago

    Сезон подкрался незаметно! Отлично)

    4 months ago

    +3

    4 months ago

    +4

    4 months ago

    +5

    4 months ago

    +6

    3 months ago

    +7

    3 months ago

    +8

    3 months ago

    +9

    Files

    The Bold Type Season 3 WEB-DLRipThe.Bold.Type.s03e01.WEB-DLRip.RGzsRutracker.avi 755 MB
    The Bold Type Season 3 WEB-DLRipThe.Bold.Type.s03e02.WEB-DLRip.RGzsRutracker.avi 751 MB
    The Bold Type Season 3 WEB-DLRipThe.Bold.Type.s03e03.WEB-DLRip.RGzsRutracker.avi 754 MB
    The Bold Type Season 3 WEB-DLRipThe.Bold.Type.s03e04.WEB-DLRip.RGzsRutracker.avi 745 MB
    The Bold Type Season 3 WEB-DLRipThe.Bold.Type.s03e05.WEB-DLRip.RGzsRutracker.avi 752 MB
    The Bold Type Season 3 WEB-DLRipThe.Bold.Type.s03e06.WEB-DLRip.RGzsRutracker.avi 738 MB
    The Bold Type Season 3 WEB-DLRipThe.Bold.Type.s03e07.WEB-DLRip.RGzsRutracker.avi 754 MB
    The Bold Type Season 3 WEB-DLRipThe.Bold.Type.s03e08.WEB-DLRip.RGzsRutracker.avi 758 MB
    The Bold Type Season 3 WEB-DLRipThe.Bold.Type.s03e09.WEB-DLRip.RGzsRutracker.avi 740 MB

    Stream

    Downloading Seeding The Bold Type Season 3 WEB-DLRip from to 0 peers.
    of
    0 b/s / ↗0 b/s