• 6
  • 1
Sponsored Downloadondemand_video
68%

The Blacklist: The Invisible Hand(2018)

  • 5 13
  • Drama Crime Mystery
  • When bodies are discovered in abandoned woods, Red points the Task Force toward The Invisible Hand, a group that targets those whose actions are morally reprehensible yet fully legal. Meanwhile, Red steps in to assist one of his employees, and Liz discovers a major clue about Tom's investigation.

    expand_more
    English

    Description

    image

    ** GIUSEPPEiCV & LITTLELINX
    HANNO IL PIACERE DI PRESENTARE **
    ** THE BLACKLIST **

    STAGIONE 5
    WEBMUX 720p
    Dual Language ITA ENG
    Sub ITA ENG
    Trovi tutte le nostre release su
    IL CORSARO VERDE
    www.icv-crew.org

    image

    .: Dati Serie :.

    Titolo originale: The Blacklist
    Nazione: Stati Uniti d'America
    Anno: 2017
    Genere: thriller, poliziesco, drammatico
    Durata Episodio: 45 minuti circa
    Stagione: 5
    Numero episodi: 22
    Cast:
    • James Spader: Raymond Reddington
    • Megan Boone: Elizabeth Keen
    • Diego Klattenhoff: Donald Ressler
    • Ryan Eggold: Tom Keen
    • Harry Lennix: Harold Cooper
    • Parminder Nagra: Meera Malik
    • Amir Arison: Aram Mojtabai
    • Mozhan Marnò: Samar Navabi
    • Hisham Tawfiq: Dembe Zuma[/b]

    A new FBI profiler, Elizabeth Keen, has her entire life uprooted when a mysterious criminal, Raymond Reddington, who has eluded capture for decades, turns himself in and insists on speaking only to her.

    Nella nuova stagione di The Blacklist, la quinta, in onda su FoxCrime a partire dal 3 novembre 2017, Red (James Spader) e Liz (Megan Boone) lavorano di nuovo insieme.

    Lo scopo è quello di consegnare un altro blacklister alla speciale Task Force, guadagnando al contempo abbastanza soldi.

    Il blacklister a cui Red dà la caccia, con il supporto di Liz, è il misterioso Smokey Putnum.

    Ma i due daranno la caccia anche a Greyson Blaise, un milionario che ha costruito dal nulla un impero economico.

    Mentre Liz affronta la nuova realtà di lavorare accanto a suo padre, Ressler (Diego Klattenhoff) si trova in una posizione precaria e Tom (Ryan Eggold) valuta le sue opzioni.

    .: Screenshot :.

    image image image image

    .: Caratteristiche Tecniche :.

    [spoiler]

    The.Blacklist.5x01.Smokey.Putnum.ITA.ENG.720p.AMZN.WEBMux.x264-Morpheus.mkv
    Format                                   : Matroska
    Format version                           : Version 4 / Version 2
    File size                                : 1.69 GiB
    Duration                                 : 41mn 15s
    Overall bit rate                         : 5 859 Kbps
    Encoded date                             : UTC 2017-11-04 09:19:56
    Writing application                      : mkvmerge v7.6.0 ('Garden of Dreams') 64bit built on Feb  8 2015 15:12:28
    Writing library                          : libebml v1.3.1 + libmatroska v1.4.2
    DURATION                                 : 00:41:15.008000000
    NUMBEROFFRAMES                         : 77344
    NUMBEROFBYTES                          : 118800384
    STATISTICSWRITING_APP                  : mkvmerge v7.6.0 ('Garden of Dreams') 64bit built on Feb  8 2015 15:12:28
    STATISTICSWRITINGDATEUTC             : 2017-11-04 09:19:56
    STATISTICSTAGS                         : BPS DURATION NUMBEROFFRAMES NUMBEROFBYTES

    Video
    ID                                       : 1
    Format                                   : AVC
    Format/Info                              : Advanced Video Codec
    Format profile                           : High@L4.1
    Format settings, CABAC                   : Yes
    Format settings, ReFrames                : 9 frames
    Codec ID                                 : VMPEG4/ISO/AVC
    Duration                                 : 41mn 15s
    Bit rate                                 : 5 167 Kbps
    Width                                    : 1 280 pixels
    Height                                   : 720 pixels
    Display aspect ratio                     : 16:9
    Frame rate                               : 25.000 fps
    Original frame rate                      : 23.976 fps
    Color space                              : YUV
    Chroma subsampling                       : 4:2:0
    Bit depth                                : 8 bits
    Scan type                                : Progressive
    Bits/(Pixel*Frame)                       : 0.224
    Stream size                              : 1.49 GiB (88%)
    Writing library                          : x264 core 148 r2638 7599210
    Encoding settings                        : cabac=1 / ref=9 / deblock=1:-3:-3 / analyse=0x3:0x133 / me=umh / subme=10 / psy=1 / psy
    rd=1.00:0.00 / mixedref=1 / merange=48 / chromame=1 / trellis=2 / 8x8dct=1 / cqm=0 / deadzone=21,11 / fastpskip=0 / chromaqpoffset=-2 / threads=12 / lookaheadthreads=2 / slicedthreads=0 / nr=0 / decimate=0 / interlaced=0 / bluraycompat=0 / constrainedintra=0 / bframes=9 / bpyramid=0 / badapt=2 / bbias=0 / direct=3 / weightb=1 / opengop=0 / weightp=2 / keyint=240 / keyintmin=23 / scenecut=40 / intrarefresh=0 / rc=crf / mbtree=0 / crf=17.0 / qcomp=0.60 / qpmin=10 / qpmax=51 / qpstep=4 / ipratio=1.40 / pbratio=1.30 / aq=3:0.70
    Default                                  : Yes
    Forced                                   : No

    Audio #1
    ID                                       : 2
    Format                                   : AC-3
    Format/Info                              : Audio Coding 3
    Mode extension                           : CM (complete main)
    Codec ID                                 : A_AC3
    Duration                                 : 41mn 15s
    Bit rate mode                            : Constant
    Bit rate                                 : 192 Kbps
    Channel(s)                               : 2 channels
    Channel positions                        : Front: L R
    Sampling rate                            : 48.0 KHz
    Bit depth                                : 16 bits
    Compression mode                         : Lossy
    Stream size                              : 56.7 MiB (3%)
    Title                                    : ITA
    Language                                 : Italian
    Default                                  : Yes
    Forced                                   : Yes

    Audio #2
    ID                                       : 3
    Format                                   : AC-3
    Format/Info                              : Audio Coding 3
    Mode extension                           : CM (complete main)
    Codec ID                                 : A_AC3
    Duration                                 : 41mn 15s
    Bit rate mode                            : Constant
    Bit rate                                 : 384 Kbps
    Channel(s)                               : 6 channels
    Channel positions                        : Front: L C R, Side: L R, LFE
    Sampling rate                            : 48.0 KHz
    Bit depth                                : 16 bits
    Compression mode                         : Lossy
    Stream size                              : 113 MiB (7%)
    Title                                    : ENG
    Language                                 : English
    Default                                  : No
    Forced                                   : No

    Text #1
    ID                                       : 4
    Format                                   : UTF-8
    Codec ID                                 : S_TEXT/UTF8
    Codec ID/Info                            : UTF-8 Plain Text
    Title                                    : ITA - Forced
    Language                                 : Italian
    Default                                  : Yes
    Forced                                   : Yes

    Text #2
    ID                                       : 5
    Format                                   : UTF-8
    Codec ID                                 : S_TEXT/UTF8
    Codec ID/Info                            : UTF-8 Plain Text
    Language                                 : Italian
    Default                                  : No
    Forced                                   : No

    Text #3
    ID                                       : 6
    Format                                   : UTF-8
    Codec ID                                 : S_TEXT/UTF8
    Codec ID/Info                            : UTF-8 Plain Text
    Language                                 : English
    Default                                  : No
    Forced                                   : No

    [/spoiler]

    .: Ringraziamenti :.

    image

    RESTATE IN SEED ALTRIMENTI

    image


    More at ibit.to
    And ibit.uno
    And ibit.ws

    Reviews

    Really great action series I've been watching for some time now...

    Comments

    Files

    The.Blacklist.5x13.La.Mano.Invisibile.ITA.ENG.720p.AMZN.WEBMux.x264Morpheus.mkv 1.8 GB

    Stream

    Downloading Seeding The.Blacklist.5x13.La.Mano.Invisibile.ITA.ENG.720p.AMZN.WEBMux.x264-Morpheus.mkv from to 0 peers.
    of
    0 b/s / ↗0 b/s