• 3
  • 3
  • done
Sponsored Downloadondemand_video
75%

The Big Bang Theory: The Donation Oscillation(2019)

  • 12 15
  • Comedy
  • Penny tries to seduce an abstaining Leonard to ruin his "donation" for her ex-boyfriend, Zack, and his wife, Marissa. Also, Wolowitz, Bernadette, Anu and Koothrappali turn Koothrappali's canceled bachelor party into a couple's trip.

    expand_more
    English

    Description

    imageimage

    imageimage

    imageimage

    imageimage

    ** Media Information **

    General

    Format                                   : Matroska

    Format version                           : Version 4 / Version 2

    File size                                : 199 MiB

    Duration                                 : 21 min 12 s

    Overall bit rate                         : 1 309 kb/s

    Movie name                               : The Big Bang Theory S12E15 The Donation Oscillation  (1080p x265 10bit Joy)

    Encoded date                             : UTC 2019-02-11 01:40:50

    Writing application                      : mkvmerge v24.0.0 ('Beyond The Pale') 64-bit

    Writing library                          : libebml v1.3.6 + libmatroska v1.4.9

    Writing frontend                         : StaxRip v1.8.2.0, a JoyBell Encode

    Video

    ID                                       : 1

    Format                                   : HEVC

    Format/Info                              : High Efficiency Video Coding

    Format profile                           : Main [email protected]@Main

    Codec ID                                 : V_MPEGH/ISO/HEVC

    Duration                                 : 21 min 12 s

    Bit rate                                 : 1 200 kb/s

    Width                                    : 1 920 pixels

    Height                                   : 1 080 pixels

    Display aspect ratio                     : 16:9

    Frame rate mode                          : Constant

    Frame rate                               : 24.000 FPS

    Color space                              : YUV

    Chroma subsampling                       : 4:2:0

    Bit depth                                : 10 bits

    Bits/(Pixel*Frame)                       : 0.024

    Stream size                              : 182 MiB (92%)

    Writing library                          : x265 2.9+15-81373aab81df:[Windows][MSVC 1916][64 bit] 10bit

    Encoding settings                        : cpuid=1111039 / frame-threads=3 / numa-pools=8 / wpp / no-pmode / no-pme / no-psnr / ssim / log-level=2 / input-csp=1 / input-res=1920x1080 / interlace=0 / total-frames=30538 / level-idc=0 / high-tier=1 / uhd-bd=0 / ref=4 / no-allow-non-conformance / no-repeat-headers / annexb / no-aud / no-hrd / info / hash=0 / no-temporal-layers / open-gop / min-keyint=24 / keyint=250 / gop-lookahead=0 / bframes=8 / b-adapt=2 / b-pyramid / bframe-bias=20 / rc-lookahead=80 / lookahead-slices=4 / scenecut=40 / radl=0 / no-splice / no-intra-refresh / ctu=64 / min-cu-size=8 / no-rect / no-amp / max-tu-size=32 / tu-inter-depth=1 / tu-intra-depth=1 / limit-tu=0 / rdoq-level=2 / dynamic-rd=0.00 / ssim-rd / signhide / no-tskip / nr-intra=0 / nr-inter=0 / no-constrained-intra / strong-intra-smoothing / max-merge=3 / limit-refs=3 / limit-modes / me=3 / subme=3 / merange=57 / temporal-mvp / weightp / no-weightb / no-analyze-src-pics / deblock=0:0 / sao / no-sao-non-deblock / rd=4 / no-early-skip / rskip / no-fast-intra / no-tskip-fast / no-cu-lossless / no-b-intra / no-splitrd-skip / rdpenalty=0 / psy-rd=0.00 / psy-rdoq=1.00 / no-rd-refine / no-lossless / cbqpoffs=0 / crqpoffs=0 / rc=abr / bitrate=1200 / qcomp=0.60 / qpstep=4 / stats-write=0 / stats-read=2 / cplxblur=20.0 / qblur=0.5 / ipratio=1.40 / pbratio=1.30 / aq-mode=2 / aq-strength=0.80 / cutree / zone-count=0 / no-strict-cbr / qg-size=32 / no-rc-grain / qpmax=69 / qpmin=0 / no-const-vbv / sar=0 / overscan=0 / videoformat=5 / range=0 / colorprim=2 / transfer=2 / colormatrix=2 / chromaloc=0 / display-window=0 / max-cll=0,0 / min-luma=0 / max-luma=1023 / log2-max-poc-lsb=8 / vui-timing-info / vui-hrd-info / slices=1 / no-opt-qp-pps / no-opt-ref-list-length-pps / multi-pass-opt-rps / scenecut-bias=0.05 / no-opt-cu-delta-qp / no-aq-motion / no-hdr / no-hdr-opt / no-dhdr10-opt / no-idr-recovery-sei / analysis-reuse-level=10 / scale-factor=0 / refine-intra=0 / refine-inter=0 / refine-mv=0 / limit-sao / ctu-info=0 / no-lowpass-dct / refine-mv-type=0 / copy-pic=1 / max-ausize-factor=1.0 / no-dynamic-refine / no-single-sei

    Default                                  : Yes

    Forced                                   : No

    Audio

    ID                                       : 2

    Format                                   : AAC

    Format/Info                              : Advanced Audio Codec

    Format profile                           : HE-AAC / LC

    Codec ID                                 : A_AAC

    Duration                                 : 21 min 12 s

    Bit rate                                 : 107 kb/s

    Channel(s)                               : 6 channels

    Channel positions                        : Front: L C R, Side: L R, LFE

    Sampling rate                            : 48.0 kHz / 24.0 kHz

    Frame rate                               : 23.438 FPS (1024 spf)

    Compression mode                         : Lossy

    Delay relative to video                  : 31 ms

    Stream size                              : 16.3 MiB (8%)

    Language                                 : English

    Default                                  : No

    Forced                                   : No

    Subtitle #1

    ID                                       : 3

    Format                                   : UTF-8

    Codec ID                                 : S_TEXT/UTF8

    Codec ID/Info                            : UTF-8 Plain Text

    Duration                                 : 20 min 44 s

    Bit rate                                 : 92 b/s

    Count of elements                        : 447

    Stream size                              : 14.1 KiB (0%)

    Language                                 : English

    Default                                  : No

    Forced                                   : No

    Subtitle #2

    ID                                       : 4

    Format                                   : UTF-8

    Codec ID                                 : S_TEXT/UTF8

    Codec ID/Info                            : UTF-8 Plain Text

    Duration                                 : 20 min 44 s

    Bit rate                                 : 94 b/s

    Count of elements                        : 460

    Stream size                              : 14.4 KiB (0%)

    Language                                 : English

    Default                                  : No

    Forced                                   : No

    ** Source Information **

    Release: The.Big.Bang.Theory.S12E15.The.Donation.Oscillation.1080p.AMZN.WEBRip.DDP5.1.x264-NTb[rarbg]  (1.81 GB)


    More at ibit.to
    And ibit.uno
    And ibit.ws

    Reviews

    **What this review might have sounded like had I written it 7 years ago.** The first few seasons are, for the most part, extremely fantastic, focused, funny, fresh, intelligent and even at times, brilliant. Most importantly, it offers something that separates it from the pack...Must see TV! **What this review sounds like now nearing the end of the shows run.** A once great show which slowly starts to diminish around season 4, unfortunately. By the 9th season it seems as though the pen and paper have been handed over to teenage fans of the show...Decent background noise. **To conclude.** This show was once incredible, and something fresh, even at times brilliant. I couldn't wait for each new episode. Now, I watch it when it becomes available on a streaming service, and, on rare occasion you get a great episode, but it's not worth devoting a weekly schedule and sitting through all the fan-fiction episodes and story lines to get to the good stuff. The show can still be enjoyable, without question, though I find it better suited as background noise while doing work instead of must see TV that you're excited to tune in as it airs each week. It's now just another average sitcom which has been dumbed down for the masses quite considerably. At this rate, the show will probably end with Penny having Sheldon's child to fulfill the most commonly seen teenage fan-fiction.

    Comments

    Files

    The Big Bang Theory S12E15 The Donation Oscillation (1080p x265 10bit S82 Joy).mkv 199 MB
    The Big Bang Theory S12E15 The Donation Oscillation (1080p x265 10bit S82 Joy).mkv 199 MB

    Stream

    Downloading Seeding The Big Bang Theory S12E15 The Donation Oscillation (1080p x265 10bit S82 Joy).mkv from to 0 peers.
    of
    0 b/s / ↗0 b/s