• 1
  • 1
  • done
Anonymous Downloadondemand_video
  • The Big Bang Theory S12 (2018) WEBRip (Gears Media)
  • 4.2 GB
  • T_A_R
  • Big Bang Theory S12 2018 WEBRip Gears Media
  • Other
Warning! Use a VPN When Downloading Torrents!
Your IP Address is ,
Your Internet Provider can see when you download torrents! Hide your IP ADDRESS with a VPN
We strongly recommend Trust.Zone VPN to hide your torrenting. It's FREE!
DOWNLOAD VPN

Description

Теория Большого Взрыва / The Big Bang Theory

image

Год выпуска: 2018

Страна: США

Жанр: Ситком, комедия

Продолжительность: ~ 00:20:00

Перевод: Профессиональный (двухголосый закадровый)

[Gears Media]

Режиссёр: Марк Сендроуски, Энтони Джозеф Рич, Питер Чакос

В ролях: Джонни Галэки, Джим Парсонс, Кейли Куоко, Саймон Хелберг, Кунал Найяр, Майем Биалик, Мелисса Рауш, Кэрол Энн Сьюзи, Кевин Суссман, Арти Манн, Брайан Джордж, Элис Эмтер, Сара Гилберт, Джон Росс Боуи, Уил Уитон, Лори Меткаф, Верни Уотсон-Джонсон, Кристин Барански, Джошуа Малина, Кейси Сэндер, Кэти Леклерк

Описание:

Леонард и Пенни стали супругами и переживают новый период отношений. Они узнают о помолвке Шелдон и Эми, которые устроили сложные испытания для определения лучшего друга для молодожёнов. Парочка остановилась на Леонарде, который знает, что угодить другу невозможно. Шелдон скрывает от друзей, что продолжает работать с военными и строит ракету. Леонард занимается исследованиями тёмной материи. События развиваются с необычайной скоростью. Компания Пенни хочет заключить контракт с Биллом Гейтсом, и приятели готовятся к встрече с компьютерным гением. Шелдон отправляется в лесную хижину к учёному Уолкотту, а потом уезжает в Вегас подзаработать денег. Идут дружные приготовления к свадьбе. Только у Эми с Шелдоном совсем другие планы.

Ссылка на предыдущие и альтернативные раздачи : http://rutracker.org/forum/tracker.php?g=foreign_serials&nm=The%20Big%20Bang%20Theory

Сэмпл : http://multi-up.com/1212066

Качество : WEBRip

Формат : AVI

Видео : XviD, 720x400 at 23.976 fps, ~1500 kbps avg

Аудио1: Russian, MP3, 48 kHz, 2 ch, 128 kbps

Аудио2: English, MP3, 48 kHz, 2 ch, 128 kbps

Субтитры : нет

Реклама : аудио (два раза, в начале и конце, по 12 сек.)

MediaInfo

Format : AVI
Format/Info : Audio Video Interleave
File size : 259 MiB
Duration : 20 min 37 s
Overall bit rate : 1 757 kb/s
Writing application : Lavf57.29.101

Video
ID : 0
Format : xvid
Codec ID : xvid
Duration : 20 min 37 s
Bit rate : 1 481 kb/s
Width : 720 pixels
Height : 400 pixels
Display aspect ratio : 16:9
Frame rate : 23.976 (24000/1001) FPS
Scan type : Progressive
Bits/(Pixel*Frame) : 0.214
Stream size : 219 MiB (84%)

Audio #1
ID : 1
Format : MPEG Audio
Format version : Version 1
Format profile : Layer 3
Format settings : Joint stereo / MS Stereo
Codec ID : 55
Codec ID/Hint : MP3
Duration : 20 min 37 s
Bit rate mode : Constant
Bit rate : 128 kb/s
Channel(s) : 2 channels
Sampling rate : 48.0 kHz
Compression mode : Lossy
Stream size : 18.9 MiB (7%)
Alignment : Aligned on interleaves
Interleave, duration : 24 ms (0.58 video frame)
Interleave, preload duratio : 120 ms
Title : Gears Media
Writing library : LAME3.99.5

Audio #2
ID : 2
Format : MPEG Audio
Format version : Version 1
Format profile : Layer 3
Format settings : Joint stereo / MS Stereo
Codec ID : 55
Codec ID/Hint : MP3
Duration : 20 min 37 s
Bit rate mode : Constant
Bit rate : 128 kb/s
Channel(s) : 2 channels
Sampling rate : 48.0 kHz
Compression mode : Lossy
Stream size : 18.9 MiB (7%)
Alignment : Aligned on interleaves
Interleave, duration : 24 ms (0.58 video frame)
Interleave, preload duratio : 120 ms
Writing library : LAME3.99.5

Скриншоты

image image image image

Внимание! Раздача ведётся путём добавления новых серий

Внимание! Раздача ведётся путём добавления новых серий; при каждом добавлении создаётся новый торрент. Чтобы начать докачку новой серии, пользователям необходимо сделать следующее:
(1) остановить скачивание,
(2) удалить старый торрент у себя из клиента (старые серии удалять не надо),
(3) скачать новый торрент и запустить его у себя в клиенте вместо старого, при этом указать клиенту путь в старую папку куда и должно происходить скачивание новых серий.

Ваш клиент при этом должен произвести хеширование (проверку) старой папки (если не производит сам - помогите ему сделать это), и будет докачивать только те серии которых у вас ещё нет. Старые серии при этом не удаляются, а продолжают раздаваться!

Eсли вы уже удалили старые серии, то предотвратить повторную закачку старых серий можно, отжав галочку в соответствующих местах при запуске нового торрента. По возможности, желательно не удалять старые серии как можно дольше чтобы релизёр не столько продолжал раздавать старые серии, а смог сконцентрироваться на новых.


More at ibit.to
And ibit.uno
And ibit.ws

Comments

Files

The Big Bang Theory S12E15 (2018) WEBRip (Gears Media).avi 265 MB
The Big Bang Theory S12E08 (2018) WEBRip (Gears Media).avi 264 MB
The Big Bang Theory S12E02 (2018) WEBRip (Gears Media).avi 264 MB
The Big Bang Theory S12E10 (2018) WEBRip (Gears Media).avi 261 MB
The Big Bang Theory S12E01 (2018) WEBRip (Gears Media).avi 259 MB
The Big Bang Theory S12E03 (2018) WEBRip (Gears Media).avi 257 MB
The Big Bang Theory S12E09 (2018) WEBRip (Gears Media).avi 255 MB
The Big Bang Theory S12E13 (2018) WEBRip (Gears Media).avi 253 MB
The Big Bang Theory S12E16 (2018) WEBRip (Gears Media).avi 252 MB
The Big Bang Theory S12E12 (2018) WEBRip (Gears Media).avi 249 MB
The Big Bang Theory S12E17 (2018) WEBRip (Gears Media).avi 245 MB
The Big Bang Theory S12E14 (2018) WEBRip (Gears Media).avi 244 MB
The Big Bang Theory S12E11 (2018) WEBRip (Gears Media).avi 242 MB
The Big Bang Theory S12E06 (2018) WEBRip (Gears Media).avi 241 MB
The Big Bang Theory S12E07 (2018) WEBRip (Gears Media).avi 241 MB
The Big Bang Theory S12E04 (2018) WEBRip (Gears Media).avi 238 MB
The Big Bang Theory S12E05 (2018) WEBRip (Gears Media).avi 236 MB

Stream

Downloading Seeding The Big Bang Theory S12 (2018) WEBRip (Gears Media) from to 0 peers.
of
0 b/s / ↗0 b/s