• 17
  • 7
Anonymous Downloadondemand_video
Warning! Use a VPN When Downloading Torrents!
Your IP Address is ,
Your Internet Provider can see when you download torrents! Hide your IP ADDRESS with a VPN
We strongly recommend hide.me VPN to hide your torrenting. It's FREE!
DOWNLOAD VPN
63%

The Aftermath (2019)

  • Drama Romance War
  • In the aftermath of World War II, a British colonel and his wife are assigned to live in Hamburg during the post-war reconstruction, but tensions arise with the German widower who lives with them.

    expand_more
    English

    Description

    image

    The Aftermath 2019 x264 720p Esub BluRay 6.0 Dual Audio English Hindi GOPISAHI

    Format                         : Matroska

    Format version                 : Version 4

    File size                      : 849 MiB

    Duration                       : 1 h 48 min

    Overall bit rate               : 1 093 kb/s

    Movie name                     : The Aftermath 2019 GOPISAHI

    Video

    Format                         : AVC

    Format/Info                    : Advanced Video Codec

    Format profile                 : [email protected]

    Codec ID                       : V_MPEG4/ISO/AVC

    Duration                       : 1 h 48 min

    Bit rate                       : 699 kb/s

    Width                          : 1 280 pixels

    Height                         : 688 pixels

    Display aspect ratio           : 1.85:1

    Frame rate mode                : Constant

    Frame rate                     : 23.976 (24000/1001) FPS

    Color space                    : YUV

    Chroma subsampling             : 4:2:0

    Bit depth                      : 8 bits

    Scan type                      : Progressive

    Bits/(Pixel*Frame)             : 0.033

    Stream size                    : 543 MiB (64%)

    Title                          : GOPISAHI

    Writing library                : x264 core 157 r2935 545de2f

    Audio #1

    Format                         : AAC LC

    Duration                       : 1 h 48 min

    Bit rate                       : 192 kb/s

    Channel(s)                     : 6 channels

    Channel layout                 : C L R Ls Rs LFE

    Sampling rate                  : 48.0 kHz

    Frame rate                     : 46.875 FPS (1024 SPF)

    Compression mode               : Lossy

    Stream size                    : 150 MiB (18%)

    Title                          : GOPISAHI

    Language                       : Hindi

    Audio #2

    Format                         : AAC LC

    Duration                       : 1 h 48 min

    Bit rate                       : 192 kb/s

    Channel(s)                     : 6 channels

    Channel layout                 : C L R Ls Rs LFE

    Sampling rate                  : 48.0 kHz

    Frame rate                     : 46.875 FPS (1024 SPF)

    Compression mode               : Lossy

    Stream size                    : 149 MiB (18%)

    Title                          : GOPISAHI

    Language                       : English

    Text #1

    Language                       : English

    Text #2

    Format                         : PGS

    Language                       : Hindi

    Text #3

    Language                       : English

    image

    image

    image


    More at ibit.to
    And ibit.uno
    And ibit.am
    And ibit.ws

    Reviews

    Comments

    Files

    The Aftermath 2019 x264 720p Esub BluRay 6.0 Dual Audio English Hindi GOPISAHI.mkv 849 MB

    Stream

    Downloading Seeding The Aftermath 2019 x264 720p Esub BluRay 6.0 Dual Audio English Hindi GOPISAHI.mkv from to 0 peers.
    of
    0 b/s / ↗0 b/s