• 1
  • 0
  • 46
  • done
Sponsored Downloadondemand_video
  • The After Party 2018 720p WEB-DL x264 ESub [MW]
  • 775 MB
  • moviezworldz
  • Party 2018 720p x264 ESub WEB
  • English
  • HD
64%

The After Party (2018)

  • Comedy Music
  • When an aspiring rapper goes viral for the wrong reasons, he thinks his career is sunk. But a wild party gives him one more chance to make it right.

    expand_more
    English

    Description

    image

    **General

    Format : Matroska

    Format version : Version 4 / Version 2

    File size : 775 MiB

    Duration : 1 h 29 min

    Overall bit rate : 1 206 kb/s

    Video

    ID : 1

    Format : AVC

    Format/Info : Advanced Video Codec

    Format profile : [email protected]
    Format settings : CABAC / 4 Ref Frames

    Format settings, CABAC : Yes

    Format settings, RefFrames : 4 frames

    Codec ID : V_MPEG4/ISO/AVC

    Duration : 1 h 29 min

    Bit rate : 1 100 kb/s

    Width : 1 280 pixels

    Height : 532 pixels

    Display aspect ratio : 2.40:1

    Frame rate mode : Constant

    Frame rate : 23.976 (24000/1001) FPS

    Color space : YUV

    Chroma subsampling : 4:2:0

    Bit depth : 8 bits

    Scan type : Progressive

    Bits/(Pixel*Frame) : 0.067

    Stream size : 691 MiB (89%)

    Writing library : x264 core 155 r2901 7d0ff22

    Default : Yes

    Forced : No

    Audio

    ID : 2

    Format : AAC

    Format/Info : Advanced Audio Codec

    Format profile : LC

    Codec ID : A_AAC-2

    Duration : 1 h 29 min

    Bit rate : 128 kb/s

    Channel(s) : 2 channels

    Channel positions : Front: L R

    Sampling rate : 48.0 kHz

    Frame rate : 46.875 FPS (1024 SPF)

    Compression mode : Lossy

    Stream size : 81.9 MiB (11%)

    Language : English

    Default : Yes

    Forced : No

    Text

    ID : 3

    Format : UTF-8

    Codec ID : S_TEXT/UTF8

    Codec ID/Info : UTF-8 Plain Text

    Duration : 1 h 22 min

    Bit rate : 100 b/s

    Count of elements : 1530

    Stream size : 60.6 KiB (0%)

    Default : Yes

    Forced : No**

    Click To Enlarge Image

    image
    image
    image
    image
    image
    image


    More at ibit.to
    And ibit.uno
    And ibit.ws

    Reviews

    Comments

    Files

    The After Party 2018 720p WEB-DL x264 ESub [MW].mkv 775 MB
    The After Party 2018 720p WEBDL x264 ESub [MW] -
    The After Party 2018 720p WEBDL x264 ESub [MW].mkv 775 MB

    Stream

    Downloading Seeding The After Party 2018 720p WEB-DL x264 ESub [MW] from to 0 peers.
    of
    0 b/s / ↗0 b/s