• 1
  • 0
  • done
Anonymous Download
  • Terry Lee Brown Junior - Repack
  • 438 MB
  • crazysem
  • Terry Lee Brown Junior Repack
  • House, Techno, Hardcore, Hards
Warning! Use a VPN When Downloading Torrents!
Your IP Address is ,
Your Internet Provider can see when you download torrents! Hide your IP ADDRESS with a VPN
We strongly recommend hide.me VPN to hide your torrenting. It's FREE!
DOWNLOAD VPN

Description

Terry Lee Brown Junior / Repack

image

Жанр : Tech House

Страна-производитель диска : Germany

Год издания диска : 2009

Издатель (лейбл) : Plastic City

Номер по каталогу : plac065-2

Страна : Germany

Аудио кодек : FLAC (*.flac)

Тип рипа : tracks+.cue

Битрейт аудио : lossless

Продолжительность : 01:16:43

Источник (релизер) : what

Наличие сканов в содержимом раздачи : нет
image

Треклист :

01.

Night In Sutivan (Terry's Bura Edit) [5:43]

02.

Soul Digits (David Alvarado Remix) [7:54]

03.

Wait Feat. Robert Manos (Sendos Fuera Remix) [7:03]

04.

Everyday (Nikola Gala Remix) [6:59]

05.

Soul Digits (Roberto Rodriguez Remix) [8:15]

06.

Delightful Encounter (Greg Parker Mix) [7:56]

07.

Chatterbox (Basic Version) [5:09]

08.

Pulsar (Coccer Remix) [6:48]

09.

Soul Digits (Nick Curly Remix) [7:14]

10.

Wait (The Timewriter Remix) [7:41]

11.

Delightful Encounter (uNN Remix) [6:01]

Лог создания рипа

`Exact Audio Copy V0.99 prebeta 4 from 23. January 2008

EAC extraction logfile from 20. May 2010, 16:14

Terry Lee Brown Junior / Repack

Used drive : PLEXTOR DVDR PX-755A Adapter: 1 ID: 0

Read mode : Secure
Utilize accurate stream : Yes
Defeat audio cache : Yes
Make use of C2 pointers : No

Read offset correction : 30
Overread into Lead-In and Lead-Out : Yes
Fill up missing offset samples with silence : Yes
Delete leading and trailing silent blocks : No
Null samples used in CRC calculations : Yes
Used interface : Native Win32 interface for Win NT & 2000
Gap handling : Appended to previous track

Used output format : User Defined Encoder
Selected bitrate : 128 kBit/s
Quality : High
Add ID3 tag : No
Command line compressor : C:Program FilesExact Audio CopyFlacflac.exe
Additional command line options : -8 -V -T "ARTIST=%a" -T "TITLE=%t" -T "ALBUM=%g" -T "DATE=%y" -T "TRACKNUMBER=%n" -T "GENRE=%m" -T "COMMENT=EAC FLAC -8" %s

TOC of the extracted CD

Track | Start | Length | Start sector | End sector


1 | 0:00.00 | 5:42.68 | 0 | 25717
2 | 5:42.68 | 7:54.26 | 25718 | 61293
3 | 13:37.19 | 7:02.65 | 61294 | 93008
4 | 20:40.09 | 6:59.05 | 93009 | 124438
5 | 27:39.14 | 8:15.37 | 124439 | 161600
6 | 35:54.51 | 7:56.12 | 161601 | 197312
7 | 43:50.63 | 5:08.43 | 197313 | 220455
8 | 48:59.31 | 6:47.46 | 220456 | 251026
9 | 55:47.02 | 7:14.23 | 251027 | 283599
10 | 63:01.25 | 7:41.07 | 283600 | 318181
11 | 70:42.32 | 6:00.58 | 318182 | 345239

Track 1

Filename F:TorrentsTerry Lee Brown Junior - RepackTerry Lee Brown Junior - Repack01. Terry Lee Brown Junior - Night In Sutivan (Terry's Bura Edit).wav

Pre-gap length 0:00:02.00

Peak level 98.8 %
Track quality 100.0 %
Test CRC 4418975F
Copy CRC 4418975F
Accurately ripped (confidence 3) [058F38E7]
Copy OK

Track 2

Filename F:TorrentsTerry Lee Brown Junior - RepackTerry Lee Brown Junior - Repack02. Terry Lee Brown Junior - Soul Digits (David Alvarado Remix).wav

Peak level 98.8 %
Track quality 100.0 %
Test CRC 35C5B50A
Copy CRC 35C5B50A
Accurately ripped (confidence 3) [4B336490]
Copy OK

Track 3

Filename F:TorrentsTerry Lee Brown Junior - RepackTerry Lee Brown Junior - Repack03. Terry Lee Brown Junior - Wait Feat. Robert Manos (Sendos Fuera Remix).wav

Peak level 98.8 %
Track quality 100.0 %
Test CRC 3E71A841
Copy CRC 3E71A841
Accurately ripped (confidence 3) [E4B55CA9]
Copy OK

Track 4

Filename F:TorrentsTerry Lee Brown Junior - RepackTerry Lee Brown Junior - Repack04. Terry Lee Brown Junior - Everyday (Nikola Gala Remix).wav

Peak level 98.8 %
Track quality 99.9 %
Test CRC 2BD59B88
Copy CRC 2BD59B88
Accurately ripped (confidence 3) [8F104656]
Copy OK

Track 5

Filename F:TorrentsTerry Lee Brown Junior - RepackTerry Lee Brown Junior - Repack05. Terry Lee Brown Junior - Soul Digits (Roberto Rodriguez Remix).wav

Peak level 98.8 %
Track quality 100.0 %
Test CRC 0F0B0F15
Copy CRC 0F0B0F15
Accurately ripped (confidence 3) [47617CF0]
Copy OK

Track 6

Filename F:TorrentsTerry Lee Brown Junior - RepackTerry Lee Brown Junior - Repack06. Terry Lee Brown Junior - Delightful Encounter (Greg Parker Mix).wav

Peak level 98.8 %
Track quality 99.9 %
Test CRC 412D8D7A
Copy CRC 412D8D7A
Accurately ripped (confidence 3) [44A7F0F1]
Copy OK

Track 7

Filename F:TorrentsTerry Lee Brown Junior - RepackTerry Lee Brown Junior - Repack07. Terry Lee Brown Junior - Chatterbox (Basic Version).wav

Peak level 98.8 %
Track quality 100.0 %
Test CRC FE5E3B1F
Copy CRC FE5E3B1F
Accurately ripped (confidence 3) [D8051258]
Copy OK

Track 8

Filename F:TorrentsTerry Lee Brown Junior - RepackTerry Lee Brown Junior - Repack08. Terry Lee Brown Junior - Pulsar (Coccer Remix).wav

Peak level 98.8 %
Track quality 100.0 %
Test CRC 20D64FC9
Copy CRC 20D64FC9
Accurately ripped (confidence 3) [6B780A4A]
Copy OK

Track 9

Filename F:TorrentsTerry Lee Brown Junior - RepackTerry Lee Brown Junior - Repack09. Terry Lee Brown Junior - Soul Digits (Nick Curly Remix).wav

Peak level 98.8 %
Track quality 99.9 %
Test CRC 998497BF
Copy CRC 998497BF
Accurately ripped (confidence 3) [409FF455]
Copy OK

Track 10

Filename F:TorrentsTerry Lee Brown Junior - RepackTerry Lee Brown Junior - Repack10. Terry Lee Brown Junior - Wait (The Timewriter Remix).wav

Peak level 98.8 %
Track quality 100.0 %
Test CRC 0AC48352
Copy CRC 0AC48352
Accurately ripped (confidence 3) [F0149273]
Copy OK

Track 11

Filename F:TorrentsTerry Lee Brown Junior - RepackTerry Lee Brown Junior - Repack11. Terry Lee Brown Junior - Delightful Encounter (uNN Remix).wav

Peak level 98.8 %
Track quality 100.0 %
Test CRC E59B8586
Copy CRC E59B8586
Accurately ripped (confidence 3) [A130FB48]
Copy OK

All tracks accurately ripped

No errors occurred

End of status report `

Содержание индексной карты (.CUE)

REM GENRE "Tech House" REM DATE 2009 REM DISCID 9711FB0B REM COMMENT "ExactAudioCopy v0.99pb4" PERFORMER "Terry Lee Brown Junior" TITLE "Repack" FILE "01. Terry Lee Brown Junior - Night In Sutivan (Terry's Bura Edit).wav" WAVE TRACK 01 AUDIO TITLE "Night In Sutivan (Terry's Bura Edit)" PERFORMER "Terry Lee Brown Junior" INDEX 01 00:00:00 FILE "02. Terry Lee Brown Junior - Soul Digits (David Alvarado Remix).wav" WAVE TRACK 02 AUDIO TITLE "Soul Digits (David Alvarado Remix)" PERFORMER "Terry Lee Brown Junior" INDEX 01 00:00:00 FILE "03. Terry Lee Brown Junior - Wait Feat. Robert Manos (Sendos Fuera Remix).wav" WAVE TRACK 03 AUDIO TITLE "Wait Feat. Robert Manos (Sendos Fuera Remix)" PERFORMER "Terry Lee Brown Junior" INDEX 01 00:00:00 FILE "04. Terry Lee Brown Junior - Everyday (Nikola Gala Remix).wav" WAVE TRACK 04 AUDIO TITLE "Everyday (Nikola Gala Remix)" PERFORMER "Terry Lee Brown Junior" INDEX 01 00:00:00 FILE "05. Terry Lee Brown Junior - Soul Digits (Roberto Rodriguez Remix).wav" WAVE TRACK 05 AUDIO TITLE "Soul Digits (Roberto Rodriguez Remix)" PERFORMER "Terry Lee Brown Junior" INDEX 01 00:00:00 FILE "06. Terry Lee Brown Junior - Delightful Encounter (Greg Parker Mix).wav" WAVE TRACK 06 AUDIO TITLE "Delightful Encounter (Greg Parker Mix)" PERFORMER "Terry Lee Brown Junior" INDEX 01 00:00:00 FILE "07. Terry Lee Brown Junior - Chatterbox (Basic Version).wav" WAVE TRACK 07 AUDIO TITLE "Chatterbox (Basic Version)" PERFORMER "Terry Lee Brown Junior" INDEX 01 00:00:00 FILE "08. Terry Lee Brown Junior - Pulsar (Coccer Remix).wav" WAVE TRACK 08 AUDIO TITLE "Pulsar (Coccer Remix)" PERFORMER "Terry Lee Brown Junior" INDEX 01 00:00:00 FILE "09. Terry Lee Brown Junior - Soul Digits (Nick Curly Remix).wav" WAVE TRACK 09 AUDIO TITLE "Soul Digits (Nick Curly Remix)" PERFORMER "Terry Lee Brown Junior" INDEX 01 00:00:00 FILE "10. Terry Lee Brown Junior - Wait (The Timewriter Remix).wav" WAVE TRACK 10 AUDIO TITLE "Wait (The Timewriter Remix)" PERFORMER "Terry Lee Brown Junior" INDEX 01 00:00:00 FILE "11. Terry Lee Brown Junior - Delightful Encounter (uNN Remix).wav" WAVE TRACK 11 AUDIO TITLE "Delightful Encounter (uNN Remix)" PERFORMER "Terry Lee Brown Junior" INDEX 01 00:00:00


More at ibit.to
And ibit.uno
And ibit.am
And ibit.ws

Comments

2 years ago

отличная музыка может кто то стать на раздачу ) очень хочу скачать)

Files

03. Terry Lee Brown Junior - Wait Feat. Robert Manos (Sendos Fuera Remix).flac 39 MB
06. Terry Lee Brown Junior - Delightful Encounter (Greg Parker Mix).flac 42 MB
Terry Lee Brown Junior - Repack.m3u 1.5 kB
09. Terry Lee Brown Junior - Soul Digits (Nick Curly Remix).flac 39 MB
04. Terry Lee Brown Junior - Everyday (Nikola Gala Remix).flac 39 MB
Terry Lee Brown Junior - Repack.log 5.7 kB
Repack.cue 2.4 kB
11. Terry Lee Brown Junior - Delightful Encounter (uNN Remix).flac 32 MB
07. Terry Lee Brown Junior - Chatterbox (Basic Version).flac 27 MB
02. Terry Lee Brown Junior - Soul Digits (David Alvarado Remix).flac 46 MB
10. Terry Lee Brown Junior - Wait (The Timewriter Remix).flac 52 MB
Repack.flac.cue 2.4 kB
01. Terry Lee Brown Junior - Night In Sutivan (Terry's Bura Edit).flac 35 MB
05. Terry Lee Brown Junior - Soul Digits (Roberto Rodriguez Remix).flac 53 MB
08. Terry Lee Brown Junior - Pulsar (Coccer Remix).flac 35 MB

Stream

Downloading Seeding Terry Lee Brown Junior - Repack from to 0 peers.
of
0 b/s / ↗0 b/s