• 7
  • 1
  • 1,144
  • done
Sponsored Downloadondemand_video

Description

Terminator 2: Judgement day - Skynet Special Edition
Terminator 2: Il Giorno del Giudizio - Skynet Special Edition - ZMachine

:: Screenshots ::

image
image
image
image
image
image

:: Mediainfo ::

General

Unique ID : 182974427994178497890832598292712845722 (0x89A797CE65846CBF81243A510E06F19A)

Complete name : F:Backup TorrentsTerminatorTerminator.2.Judgement.Day.Skynet.Special.Edition.ITA.ENG.AC3.BDRip.1080p.X265_ZMachine.mkv

Format : Matroska

Format version : Version 4 / Version 2

File size : 5.97 GiB

Duration : 2h 36mn

Overall bit rate : 5 477 Kbps

Movie name : Terminator 2:Il Giorno del Giudizio - Skynet Special Edition

Encoded date : UTC 2014-12-26 23:37:29

Writing application : mkvmerge v7.2.0 ('On Every Street') 32bit built on Sep 13 2014 15:42:11

Writing library : libebml v1.3.0 + libmatroska v1.4.1

Video

ID : 1

Format : HEVC

Format/Info : High Efficiency Video Coding

Codec ID : V_MPEGH/ISO/HEVC

Duration : 2h 36mn

Bit rate : 4 088 Kbps

Width : 1 920 pixels

Height : 816 pixels

Display aspect ratio : 2.35:1

Frame rate mode : Constant

Frame rate : 23.976 fps

Bits/(Pixel*Frame) : 0.109

Stream size : 4.46 GiB (75%)

Title : Video H.265 (Encoded by ZMachine)

Default : Yes

Forced : No

Audio #1

ID : 2

Format : AC-3

Format/Info : Audio Coding 3

Mode extension : CM (complete main)

Format settings, Endianness : Big

Codec ID : A_AC3

Duration : 2h 36mn

Bit rate mode : Constant

Bit rate : 640 Kbps

Channel(s) : 6 channels

Channel positions : Front: L C R, Side: L R, LFE

Sampling rate : 48.0 KHz

Bit depth : 16 bits

Compression mode : Lossy

Stream size : 715 MiB (12%)

Title : Audio AC3 5.1

Language : Italian

Default : Yes

Forced : No

Audio #2

ID : 3

Format : AC-3

Format/Info : Audio Coding 3

Mode extension : CM (complete main)

Format settings, Endianness : Big

Codec ID : A_AC3

Duration : 2h 36mn

Bit rate mode : Constant

Bit rate : 640 Kbps

Channel(s) : 6 channels

Channel positions : Front: L C R, Side: L R, LFE

Sampling rate : 48.0 KHz

Bit depth : 16 bits

Compression mode : Lossy

Stream size : 715 MiB (12%)

Title : Audio AC3 5.1

Language : English

Default : No

Forced : No

Text #1

ID : 4

Format : ASS

Codec ID : S_TEXT/ASS

Codec ID/Info : Advanced Sub Station Alpha

Compression mode : Lossless

Title : Sub Forced

Language : Italian

Default : Yes

Forced : Yes

Text #2

ID : 5

Format : ASS

Codec ID : S_TEXT/ASS

Codec ID/Info : Advanced Sub Station Alpha

Compression mode : Lossless

Title : Sub

Language : Italian

Default : No

Forced : No

Text #3

ID : 6

Format : ASS

Codec ID : S_TEXT/ASS

Codec ID/Info : Advanced Sub Station Alpha

Compression mode : Lossless

Title : Sub

Language : English

Default : No

Forced : No

Menu

00:00:00.000 : en:Prologue

00:00:52.093 : en:Future War

00:03:38.301 : en:Maint Titles

00:05:36.836 : en:A Terminator Arrives

00:06:48.408 : en:Biker Bar

00:09:11.217 : en:Bad to the Bone

00:10:33.549 : en:T-1000 Arrives

00:12:31.500 : en:Meet John Conner

00:13:38.609 : en:Sarah Conner

00:15:31.722 : en:Ain't No Trouble

00:16:31.907 : en:T-1000 Visits Voights

00:17:41.310 : en:Easy Money

00:19:12.150 : en:Not Much Time Time Left in the World

00:22:29.222 : en:Sanity Review

00:25:56.471 : en:Cyberdyne Systems

00:27:29.981 : en:Model Citizen

00:28:53.189 : en:Target Acquired

00:29:46.659 : en:The Galleria

00:31:23.047 : en:Zeroed in the Corridor

00:33:59.579 : en:In the Streets

00:35:10.233 : en:Canal Chase

00:38:50.327 : en:Time Out

00:41:33.407 : en:Never This Nice

00:44:16.195 : en:T-1000's Search

00:44:46.058 : en:Photos

00:46:01.425 : en:Mission Parameters

00:49:47.984 : en:Pescadero State Hospital

00:52:59.467 : en:Lewis the Guard

00:54:44.030 : en:Sarah Breaks Out

00:56:21.586 : en:215 Bones

00:57:05.046 : en:I Swear

00:58:14.032 : en:A Syringe-Point

01:00:23.953 : en:"Come with Me If You Want to Live"

01:01:51.415 : en:Escape From Pescadero

01:06:24.647 : en:Security Car

01:07:59.909 : en:Nice Bike

01:08:40.824 : en:Night Repairs

01:10:03.699 : en:Resetting the Switch

01:13:29.947 : en:Heading South

01:14:08.402 : en:No Problemo

01:14:58.243 : en:Smile?

01:16:26.248 : en:Detailed Files

01:18:48.557 : en:Meet the Pilot

01:21:09.072 : en:Salceda's Camp

01:23:38.638 : en:Weapons Cache

01:26:25.179 : en:Fathers and Sons

01:30:45.439 : en:Nuclear Nightmare

01:33:02.409 : en:Sarah's Decision

01:33:32.690 : en:No Fate

01:35:15.793 : en:Sarah's Solution

01:41:35.130 : en:Changing the Way It Goes

01:44:24.174 : en:Target: Cyberdyne

01:46:25.670 : en:All the Way

01:48:25.790 : en:T-1000 at Dyson's

01:49:05.455 : en:A Lot of Years

01:49:56.047 : en:Company

01:52:04.175 : en:Terminator Serves Notice

01:53:53.367 : en:In the Vault

01:54:25.900 : en:S.W.a.T. Offensive

01:56:47.041 : en:Death of Dyson and Cyberdyne

01:58:18.049 : en:"I'll Be Back"

01:59:58.482 : en:Borrowing the S.W.a.T. Van

02:01:11.096 : en:T-1000 Acquires a Helicopter

02:02:09.655 : en:Freeway Chase

02:04:48.647 : en:Tanker Chase

02:08:53.433 : en:Fire and Ice

02:12:22.726 : en:Glitching

02:13:02.057 : en:Sticking Together

02:13:35.215 : en:Hand to Hand

02:14:44.951 : en:Deepter Into the Steel Mill

02:15:20.070 : en:Sarahs' Stand

02:17:16.519 : en:Terminator Skewered

02:19:16.347 : en:Sarah and John

02:19:48.963 : en:Alternate Power

02:20:24.791 : en:Two Sarah's

02:21:55.465 : en:Terminated

02:24:08.681 : en:One More Chip

02:27:59.703 : en:The Unknown Future

02:28:42.371 : en:End Titles

02:32:43.695 : en:Restoration Credits


More at ibit.to
And ibit.uno
And ibit.ws

Comments

Files

Terminator.2.Judgement.Day.Skynet.Special.Edition.ITA.ENG.AC3.BDRip.1080p.X265_ZMachine.mkv 6.0 GB

Stream

Downloading Seeding Terminator 2 Judgement Day Skynet Special Edition ITA ENG AC3 BDRip 1080p X265 ZMachine from to 0 peers.
of
0 b/s / ↗0 b/s