• 3
  • 1
ondemand_video
  • THE_KID_WHO_WOULD_BE_KING.Title800.mp4
  • 1.9 GB
  • dascubadude
  • KID KING Title800 mp4
  • English
  • HD 1080p
61%

The Kid Who Would Be King (2019)

  • Action Adventure Fantasy Family
  • Old-school magic meets the modern world when young Alex stumbles upon the mythical sword Excalibur. He soon unites his friends and enemies, and they become knights who join forces with the legendary wizard Merlin. Together, they must save mankind from the wicked enchantress Morgana and her army of supernatural warriors.

    expand_more
    English
  • $59,000,000
  • Description

    image

    IMDb Info for this Film

    General

    Complete name                            : THEKIDWHOWOULDBE_KING

    Format                                   : MPEG-4

    Format profile                           : Base Media / Version 2

    Codec ID                                 : mp42 (mp42/isom/avc1)

    File size                                : 1.88 GiB

    Duration                                 : 2 h 0 min

    Overall bit rate mode                    : Variable

    Overall bit rate                         : 2 244 kb/s

    Movie name                               : THEKIDWHOWOULDBE_KING.Title800

    Album                                    : KIDWHOWOULDBEKING

    Encoded date                             : UTC 2019-08-13 21:35:39

    Tagged date                              : UTC 2019-08-13 23:09:37

    Writing application                      : DVDFab 11.0.4.2

    Cover                                    : Yes

    Video

    ID                                       : 1

    Format                                   : AVC

    Format/Info                              : Advanced Video Codec

    Format profile                           : [email protected]

    Format settings                          : CABAC / 2 Ref Frames

    Format settings, CABAC                   : Yes

    Format settings, RefFrames               : 2 frames

    Format settings, GOP                     : M=1, N=24

    Codec ID                                 : avc1

    Codec ID/Info                            : Advanced Video Coding

    Duration                                 : 2 h 0 min

    Bit rate mode                            : Variable

    Bit rate                                 : 1 782 kb/s

    Maximum bit rate                         : 2 776 kb/s

    Width                                    : 1 920 pixels

    Height                                   : 804 pixels

    Display aspect ratio                     : 2.40:1

    Frame rate mode                          : Constant

    Frame rate                               : 23.976 (24000/1001) FPS

    Color space                              : YUV

    Chroma subsampling                       : 4:2:0

    Bit depth                                : 8 bits

    Scan type                                : Progressive

    Bits/(Pixel*Frame)                       : 0.048

    Stream size                              : 1.50 GiB (79%)

    Encoded date                             : UTC 2019-08-13 21:35:39

    Tagged date                              : UTC 2019-08-13 23:09:37

    Color primaries                          : BT.709

    Transfer characteristics                 : BT.709

    Matrix coefficients                      : BT.709

    Menus                                    : 4

    Audio

    ID                                       : 2

    Format                                   : AAC

    Format/Info                              : Advanced Audio Codec

    Format profile                           : LC

    Codec ID                                 : mp4a-40-2

    Duration                                 : 2 h 0 min

    Bit rate mode                            : Variable

    Bit rate                                 : 448 kb/s

    Maximum bit rate                         : 453 kb/s

    Channel(s)                               : 6 channels

    Channel positions                        : Front: L C R, Side: L R, LFE

    Sampling rate                            : 48.0 kHz

    Frame rate                               : 46.875 FPS (1024 SPF)

    Compression mode                         : Lossy

    Stream size                              : 385 MiB (20%)

    Title                                    : English (aac 5.1)

    Language                                 : English

    Default                                  : Yes

    Alternate group                          : 1

    Encoded date                             : UTC 2019-08-13 21:35:39

    Tagged date                              : UTC 2019-08-13 23:09:37

    Text

    ID                                       : 3

    Format                                   : VobSub

    Codec ID                                 : mp4s-E0

    Codec ID/Info                            : The same subtitle format used on DVDs

    Duration                                 : 2 h 0 min

    Bit rate mode                            : Variable

    Bit rate                                 : 9 753 b/s

    Maximum bit rate                         : 4 249 Mb/s

    Stream size                              : 8.38 MiB (0%)

    Language                                 : English

    Default                                  : Yes

    Forced                                   : No

    Alternate group                          : 2

    Encoded date                             : UTC 2019-08-13 21:35:39

    Tagged date                              : UTC 2019-08-13 23:09:35


    More at ibit.to
    And ibit.uno
    And ibit.am
    And ibit.ws

    Reviews

    Man, I was ready to **absolutely** rail on this movie before I realised that what I had thought was the end was just the end of the second act. Now don't get me wrong, I still very much did not enjoy _The Kid Who Would Be King_, but the actual ending did turn me around on it somewhat. Hard to know for certain if this will play well for actual kids. Maybe they'll even take the positive messages on board and not the bad ones. But I don't know that a good message or a good time will be taken away from _The Kid Who Would Be King_ by children, I doubt it, but it doesn't seem impossible. Very disappointing after _Attack the Block_. _Final rating:★★ - Had some things that appeal to me, but a poor finished product._

    Comments

    Files

    THE_KID_WHO_WOULD_BE_KING.Title800.mp4 1.9 GB

    Stream

    Downloading Seeding THE_KID_WHO_WOULD_BE_KING.Title800.mp4 from to 0 peers.
    of
    0 b/s / ↗0 b/s