• 1
  • 0
  • 3,365
Anonymous Downloadondemand_video
  • TE3N 2016 Hindi Movies DVDRip x264-[SteveyM86].mp4
  • 1.2 GB
  • SteveyM86
  • TE3N 2016 Hindi Movies DVDRip x264 SteveyM86
  • Hindi
  • Divx/Xvid
Warning! Use a VPN When Downloading Torrents!
Your IP Address is ,
Your Internet Provider can see when you download torrents! Hide your IP ADDRESS with a VPN
We strongly recommend Trust.Zone VPN to hide your torrenting. It's FREE!
DOWNLOAD VPN
70%

Te3n (2016)

  • Mystery Thriller Drama
  • A grandfather, police officer and a priest join hands to investigate and find a missing child.

    expand_more
    Hindi
  • $5,069,632
  • Description

    TE3N 2016 Hindi Movies DVDRip x264-SteveyM86].mp4

    image

    ScreenShots:

    ScreenShot #1
    ScreenShot #2
    ScreenShot #3
    ScreenShot #4
    ScreenShot #5

    Code:

    __

    Released: 20 May 2016Category:Bollywood Featured, Bollywood Movies 2016, Featured MoviesGenres:ThrillerCountryIndiaCountry:India Language:Hindi Directors:Ribhu DasguptaWriters:Bijesh Jayarajan (screenplay), Ritesh Shah (dialogue), Suresh Nair (screenplay) Stars:Amitabh Bachchan, Nawazuddin Siddiqui, Vidya Balan

    __

    Code:

    __

    Format : MPEG-4

    Format profile : Base Media

    Codec ID : isom (isom/iso2/avc1/mp41)

    File size : 1.15 GiB

    Duration : 2h 16mn

    Overall bit rate : 1 214 Kbps

    Writing application : Lavf57.25.100

    Video

    ID : 1

    Format : AVC

    Format/Info : Advanced Video Codec

    Format profile : [[email protected]
    Format settings, CABAC : Yes

    Format settings, ReFrames : 8 frames

    Codec ID : avc1

    Codec ID/Info : Advanced Video Coding

    Duration : 2h 16mn

    Bit rate : 1 079 Kbps

    Width : 720 pixels

    Height : 304 pixels

    Display aspect ratio : 2.35:1

    Frame rate mode : Variable

    Frame rate : 23.976 (24000/1001) fps

    Minimum frame rate : 23.564 fps

    Maximum frame rate : 24.390 fps

    Color space : YUV

    Chroma subsampling : 4:2:0

    Bit depth : 8 bits

    Scan type : Progressive

    Bits/(Pixel*Frame) : 0.206

    Stream size : 1.02 GiB (89%)

    Writing library : x264 core 148 r2665 a01e339

    Encoding settings : cabac=1 / ref=8 / deblock=1:0:0 / analyse=0x3:0x133 / me=umh / subme=9 / psy=1 / psyrd=1.00:0.00 / mixedref=1 / merange=16 / chromame=1 / trellis=2 / 8x8dct=1 / cqm=0 / deadzone=21,11 / fastpskip=0 / chromaqpoffset=-2 / threads=12 / lookaheadthreads=1 / slicedthreads=0 / nr=500 / decimate=1 / interlaced=0 / bluraycompat=0 / constrainedintra=0 / bframes=3 / bpyramid=2 / badapt=2 / bbias=0 / direct=3 / weightb=1 / opengop=0 / weightp=2 / keyint=250 / keyintmin=23 / scenecut=40 / intrarefresh=0 / rclookahead=60 / rc=2pass / mbtree=1 / bitrate=1079 / ratetol=1.0 / qcomp=0.60 / qpmin=0 / qpmax=69 / qpstep=4 / cplxblur=20.0 / qblur=0.5 / ip_ratio=1.40 / aq=1:1.00

    Menus : 3

    Audio

    ID : 2

    Format : AAC

    Format/Info : Advanced Audio Codec

    Format profile : LC

    Codec ID : 40

    Duration : 2h 16mn

    Bit rate mode : Constant

    Bit rate : 132 Kbps

    Channel(s) : 2 channels

    Channel positions : Front: L R

    Sampling rate : 48.0 KHz

    Frame rate : 46.875 fps (1024 spf)

    Compression mode : Lossy

    Stream size : 126 MiB (11%)

    Default : Yes

    Alternate group : 1

    Menus : 3

    Menu #1

    ID : 3

    Codec ID : text

    Duration : 2h 16mn

    Language : English

    Bit rate mode : CBR

    Menu For : 1,2

    00:00:00.000 : Chapter 01

    00:03:57.667 : Chapter 02

    00:09:25.167 : Chapter 03

    00:12:51.701 : Chapter 04

    00:14:40.335 : Chapter 05

    00:20:14.136 : Chapter 06

    00:30:42.670 : Chapter 07

    00:31:55.538 : Chapter 08

    00:43:58.571 : Chapter 09

    00:52:24.372 : Chapter 10

    01:13:11.173 : Chapter 11

    01:17:32.240 : Chapter 12

    01:23:37.674 : Chapter 13

    01:25:21.275 : Chapter 14

    01:26:23.176 : Chapter 15

    01:32:33.676 : Chapter 16

    01:41:19.776 : Chapter 17

    01:56:48.043 : Chapter 18

    02:01:41.343 : Chapter 19

    02:07:22.510 : Chapter 20

    02:12:32.710 : Chapter 21

    Menu #2

    00:00:00.000 : Chapter 01

    00:03:57.667 : Chapter 02

    00:09:25.167 : Chapter 03

    00:12:51.701 : Chapter 04

    00:14:40.335 : Chapter 05

    00:20:14.136 : Chapter 06

    00:30:42.670 : Chapter 07

    00:31:55.538 : Chapter 08

    00:43:58.571 : Chapter 09

    00:52:24.372 : Chapter 10

    01:13:11.173 : Chapter 11

    01:17:32.240 : Chapter 12

    01:23:37.674 : Chapter 13

    01:25:21.275 : Chapter 14

    01:26:23.176 : Chapter 15

    01:32:33.676 : Chapter 16

    01:41:19.776 : Chapter 17

    01:56:48.043 : Chapter 18

    02:01:41.343 : Chapter 19

    02:07:22.510 : Chapter 20

    02:12:32.710 : Chapter 21

    __


    More at ibit.to
    And ibit.uno
    And ibit.ws

    Reviews

    Comments

    Files

    TE3N 2016 Hindi Movies DVDRip x264-[SteveyM86].mp4 1.2 GB

    Stream

    Downloading Seeding TE3N 2016 Hindi Movies DVDRip x264-[SteveyM86].mp4 from to 0 peers.
    of
    0 b/s / ↗0 b/s