• 0
  • 0
Anonymous Downloadondemand_video
  • Stock Option 2015 - DVDRip - x264 - Zi$t♥{FRG}
  • 665 MB
  • Zist313
  • Stock Option 2015 DVDRip x264
  • English
  • DVD
Warning! Use a VPN When Downloading Torrents!
Your IP Address is ,
Your Internet Provider can see when you download torrents! Hide your IP ADDRESS with a VPN
We strongly recommend Trust.Zone VPN to hide your torrenting. It's FREE!
DOWNLOAD VPN
0%

Stock Option (2015)

  • Comedy Romance
  • A down-on-his-luck stock broker becomes homeless and takes refuge in front of an office building where a famous print model works. After he heroically rescues her from a robbery attempt one night, she takes him home as an act of gratitude

    English

    Description

    http://www.imdb.com/title/tt4893328/](http://www.imdb.com/title/tt4893328/)

    image
    image

    General

    Complete name : Stock Option 2015

    Format : MPEG-4

    Format profile : Base Media

    Codec ID : isom

    File size : 665 MiB

    Duration : 1h 19mn

    Overall bit rate : 1 168 Kbps

    Movie name : Stock Option 2015

    Writing application : Lavf56.25.101

    Video

    ID : 1

    Format : AVC

    Format/Info : Advanced Video Codec

    Format profile : [[email protected]
    Format settings, CABAC : Yes

    Format settings, ReFrames : 3 frames

    Codec ID : avc1

    Codec ID/Info : Advanced Video Coding

    Duration : 1h 19mn

    Bit rate : 1 000 Kbps

    Width : 720 pixels

    Height : 304 pixels

    Display aspect ratio : 2.35:1

    Original display aspect rat : 1.85:1

    Frame rate mode : Variable

    Frame rate : 29.970 fps

    Minimum frame rate : 14.986 fps

    Maximum frame rate : 29.971 fps

    Color space : YUV

    Chroma subsampling : 4:2:0

    Bit depth : 8 bits

    Scan type : Progressive

    Bits/(Pixel*Frame) : 0.152

    Stream size : 569 MiB (86%)

    Writing library : x264 core 135

    Audio

    ID : 2

    Format : AAC

    Format/Info : Advanced Audio Codec

    Format profile : LC

    Codec ID : 40

    Duration : 1h 19mn

    Bit rate mode : Constant

    Bit rate : 160 Kbps

    Channel(s) : 2 channels

    Channel(s)_Original : 6 channels

    Channel positions : Front: L C R, Side: L R, LFE

    Sampling rate : 48.0 KHz

    Compression mode : Lossy

    Stream size : 91.0 MiB (14%)

    Language : English

    image
    image
    image
    image
    image
    image
    image
    image


    More at ibit.to
    And ibit.uno
    And ibit.ws

    Reviews

    Comments

    Files

    Stock Option 2015 - DVDRip - x264 - Zi$t♥{FRG}.mp4 697 MB

    Stream

    Downloading Seeding Stock Option 2015 - DVDRip - x264 - Zi$t♥{FRG} from to 0 peers.
    of
    0 b/s / ↗0 b/s