• 0
  • 0
  • done
Anonymous Download
Warning! Use a VPN When Downloading Torrents!
Your IP Address is ,
Your Internet Provider can see when you download torrents! Hide your IP ADDRESS with a VPN
We strongly recommend Trust.Zone VPN to hide your torrenting. It's FREE!
DOWNLOAD VPN

Description

Status Quo - The Frantic Four Reunion 2013 - Live at Wembley Arena

image

Страна : England

Жанр : Rock, hard rock, boogie rock

Продолжительность : 01:30:41

Год выпуска : 2014 г.

Описание : March 2013 will be remembered in rock history as the month in which one of the unlikeliest band reunions took place. After more than 30 years of acrimony, law suits and court battles the classic Status Quo line-up of Francis Rossi, Rick Parfitt, Alan Lancaster and John Coghlan got back together for a nine-date UK tour. With a combined age of 259 the so-called 'Frantic Four' realised it could be a case of 'now or never' so hands were shaken, hatchets were buried and they hit the road, having last played together in 1981.

Треклист :
01. Intro/Junior's Wailing
02. Backwater
03. Just Take Me
04. Is There a Better Way
05. In My Chair
06. Blue Eyed Lady
07. Little Lady
08. Most of the Time
09. (April) Spring, Summer and Wednesdays
10. Railroad
11. Oh Baby
12. Forty - Five Hundred Times
13. Rain
14. Big Fat Mama
15. Down Down
16. Roadhouse Blues
17. Don't Waste My Time
18. Bye Bye Johnny

Доп. информация : Исходник Blu-ray (спасибо anbelk27).
Сделано по заявке 416271 image
Меню статическое, озвученное, созданное на основе исходного.
Полученный результат проверен на работоспособность на софтовом Media Player Classic Home Cinema, записан на болванку с помощью ImgBurn и вновь проверен уже на бытовом плеере.

Релиз: image image image

Программы, использованные при создании этого релиза

Демуксинг

eac3to
HdBrStreamExtractor

Обработка видео

DGDecodeNV
AviSynth
Cinema Craft Encoder SP2

Обработка аудио

Audacity
DTS-HD Master Audio Suite

Создание меню. Авторинг и проверка

MPEG Video Wizard DVD
Muxman
DVD-lab PRO
DvdReMakePro
image

Скрипт

LoadPlugin("C:foldersdgdecnv2041DGDecodeNV.dll")
DGSource("G:Status Quo12video.dgi")
LoadPlugin("C:Program Files (x86)AviSynth 2.5pluginsAutoYUY2.dll")
AutoYUY2()
LoadPlugin("C:Program Files (x86)AviSynth 2.5pluginsColorMatrix.dll")
ColorMatrix(mode="Rec.709->Rec.601", inputFR=false, clamp=0)
BicubicResize(720, 480, 0, 0.5)

Точка перехода

image

image [url=http:// СПАМ image

Копипастерам

image

Уважаемые, имеете желание и возможность далее распространить сие творение по просторам сети? Я совсем не жадный и манией собственности не страдаю. Конечно можно этот релиз заливать и на других трекерах и файлообменниках, после 100% скачивания.
Только будьте любезны уважать чужой труд и соблюдать правила приличия. Пожалуйста указывайте источник. Мой ник указывать не надо. Необходимо в описании добавить наш банер или сослаться на ресурс.

Код:

[b]Релиз:[/b] [img]image

[/img]

Код:

[b]Релиз: RG BD/HD > DVD (Custom) & Music Video Group Рутрекера[/b]

Разбивка на главы по трекам : есть

Качество : BD=>DVD9

Формат : DVD video

Видео кодек : MPEG2

Аудио кодек : PCM, DTS

Видео : NTSC 16:9 (720x480p) VBR Auto Letterboxed ~6700(9800) kbps

Аудио : English (LinearPCM, 2 ch) 1536 kbps

Аудио2 : English (DTS, 6 ch) 1510 kbps

DVDinfo MI

`Title: Status Quo - Live At Wembley Arena
Size: 6.33 Gb (6 641 676,00 KBytes) - DVD-9
Enabled regions: 1, 2, 3, 4, 5, 6, 7, 8

VTS_01 :
Play Length: 01:30:41
Video: NTSC 16:9 (720x480) VBR, Auto Letterboxed
Audio:
English, LPCM, Delay = 0 mSec
English, DTS, 3/2 (L,C,R,SL,SR), 1536 kbps, Delay 0 mSec

  • Menus Information *

VIDEO_TS Menu
Video:
NTSC 16:9 (720x480) VBR
Auto Letterboxed
Audio:
Not specified (LinearPCM, 2 ch)
English Language Unit :
Title Menu

VTS_01 Menu
Video:
NTSC 16:9 (720x480) VBR
Auto Letterboxed
Audio:
Not specified (LinearPCM, 2 ch)
English Language Unit :
Root Menu


General
Complete name : D:DownloadsStatus Quo - Live At Wembley ArenaVIDEOTSVIDEOTS.BUP
Format : DVD Video
Format profile : Menu
File size : 12.0 KiB
Overall bit rate mode : Variable

Video
ID : 224 (0xE0)
Format : MPEG Video
Format version : Version 2
Bit rate mode : Variable
Width : 720 pixels
Height : 480 pixels
Display aspect ratio : 16:9
Frame rate : 29.970 fps
Standard : NTSC
Compression mode : Lossy

Audio
Format : PCM
Channel(s) : 2 channels
Sampling rate : 48.0 KHz

Text
Format : RLE
Format/Info : Run-length encoding
Bit depth : 2 bits

General
Complete name : D:DownloadsStatus Quo - Live At Wembley ArenaVIDEOTSVIDEOTS.IFO
Format : DVD Video
Format profile : Menu
File size : 12.0 KiB
Overall bit rate mode : Variable

Video
ID : 224 (0xE0)
Format : MPEG Video
Format version : Version 2
Bit rate mode : Variable
Width : 720 pixels
Height : 480 pixels
Display aspect ratio : 16:9
Frame rate : 29.970 fps
Standard : NTSC
Compression mode : Lossy

Audio
Format : PCM
Channel(s) : 2 channels
Sampling rate : 48.0 KHz

Text
Format : RLE
Format/Info : Run-length encoding
Bit depth : 2 bits

General
Complete name : D:DownloadsStatus Quo - Live At Wembley ArenaVIDEOTSVIDEOTS.VOB
Format : MPEG-PS
File size : 17.0 MiB
Duration : 32s 533ms
Overall bit rate mode : Variable
Overall bit rate : 4 374 Kbps
Writing library : (c) 1998-2009 Womble Multimedia, Inc. / MPEG Video Wizard (03/2009) / Jun 24 2009

Video
ID : 224 (0xE0)
Format : MPEG Video
Format version : Version 2
Format profile : [email protected]
Format settings, BVOP : Yes
Format settings, Matrix : Custom
Format settings, GOP : M=3, N=15
Duration : 32s 533ms
Bit rate mode : Variable
Bit rate : 2 751 Kbps
Maximum bit rate : 8 000 Kbps
Width : 720 pixels
Height : 480 pixels
Display aspect ratio : 16:9
Frame rate : 29.970 fps
Standard : NTSC
Color space : YUV
Chroma subsampling : 4:2:0
Bit depth : 8 bits
Compression mode : Lossy
Bits/(Pixel*Frame) : 0.266
Time code of first frame : 00:00:00:00
Time code source : Group of pictures header
Stream size : 10.7 MiB (63%)
Writing library : (c) 1998-2009 Womble Multimedia, Inc. / MPEG Video Wizard (03/2009) / Jun 24 2009

Audio
ID : 189 (0xBD)-160 (0xA0)
Format : PCM
Format settings, Endianness : Big
Format settings, Sign : Signed
Muxing mode : DVD-Video
Duration : 32s 306ms
Bit rate mode : Constant
Bit rate : 1 536 Kbps
Channel(s) : 2 channels
Sampling rate : 48.0 KHz
Bit depth : 16 bits
Stream size : 5.92 MiB (35%)

Text #1
ID : 189 (0xBD)-32 (0x20)
Format : RLE
Format/Info : Run-length encoding
Muxing mode : DVD-Video

Text #2
ID : 189 (0xBD)-34 (0x22)
Format : RLE
Format/Info : Run-length encoding
Muxing mode : DVD-Video

Menu

General
Complete name : D:DownloadsStatus Quo - Live At Wembley ArenaVIDEOTSVTS01_0.BUP
Format : DVD Video
Format profile : Program
File size : 60.0 KiB
Duration : 1h 30mn
Overall bit rate mode : Variable
Overall bit rate : 90 bps

Video
ID : 224 (0xE0)
Format : MPEG Video
Format version : Version 2
Duration : 1h 30mn
Bit rate mode : Variable
Width : 720 pixels
Height : 480 pixels
Display aspect ratio : 16:9
Frame rate : 29.970 fps
Standard : NTSC
Compression mode : Lossy

Audio #1
ID : 0 (0x0)
Format : PCM
Duration : 1h 30mn
Channel(s) : 2 channels
Sampling rate : 48.0 KHz
Language : English

Audio #2
ID : 137 (0x89)
Format : DTS
Format/Info : Digital Theater Systems
Duration : 1h 30mn
Channel(s) : 6 channels
Sampling rate : 48.0 KHz
Compression mode : Lossy
Language : English

Menu
Duration : 1h 30mn
00:00:00.000 : Chapter 1
00:01:31.000 : Chapter 2
00:05:06.833 : Chapter 3
00:09:32.766 : Chapter 4
00:14:46.466 : Chapter 5
00:18:28.766 : Chapter 6
00:21:41.266 : Chapter 7
00:26:11.366 : Chapter 8
00:29:25.966 : Chapter 9
00:32:45.732 : Chapter 10
00:36:55.532 : Chapter 11
00:42:43.698 : Chapter 12
00:48:07.098 : Chapter 13
00:53:10.298 : Chapter 14
00:58:12.364 : Chapter 15
01:03:44.830 : Chapter 16
01:09:37.563 : Chapter 17
01:18:00.163 : Chapter 18
01:22:18.463 : Chapter 19
List (Audio) : 0 / 1

General
Complete name : D:DownloadsStatus Quo - Live At Wembley ArenaVIDEOTSVTS01_0.IFO
Format : DVD Video
Format profile : Program
File size : 60.0 KiB
Duration : 1h 30mn
Overall bit rate mode : Variable
Overall bit rate : 90 bps

Video
ID : 224 (0xE0)
Format : MPEG Video
Format version : Version 2
Duration : 1h 30mn
Bit rate mode : Variable
Width : 720 pixels
Height : 480 pixels
Display aspect ratio : 16:9
Frame rate : 29.970 fps
Standard : NTSC
Compression mode : Lossy

Audio #1
ID : 0 (0x0)
Format : PCM
Duration : 1h 30mn
Channel(s) : 2 channels
Sampling rate : 48.0 KHz
Language : English

Audio #2
ID : 137 (0x89)
Format : DTS
Format/Info : Digital Theater Systems
Duration : 1h 30mn
Channel(s) : 6 channels
Sampling rate : 48.0 KHz
Compression mode : Lossy
Language : English

Menu
Duration : 1h 30mn
00:00:00.000 : Chapter 1
00:01:31.000 : Chapter 2
00:05:06.833 : Chapter 3
00:09:32.766 : Chapter 4
00:14:46.466 : Chapter 5
00:18:28.766 : Chapter 6
00:21:41.266 : Chapter 7
00:26:11.366 : Chapter 8
00:29:25.966 : Chapter 9
00:32:45.732 : Chapter 10
00:36:55.532 : Chapter 11
00:42:43.698 : Chapter 12
00:48:07.098 : Chapter 13
00:53:10.298 : Chapter 14
00:58:12.364 : Chapter 15
01:03:44.830 : Chapter 16
01:09:37.563 : Chapter 17
01:18:00.163 : Chapter 18
01:22:18.463 : Chapter 19
List (Audio) : 0 / 1

General
Complete name : D:DownloadsStatus Quo - Live At Wembley ArenaVIDEOTSVTS01_0.VOB
Format : MPEG-PS
File size : 40.0 MiB
Duration : 1mn 9s
Overall bit rate mode : Variable
Overall bit rate : 4 826 Kbps

Video
ID : 224 (0xE0)
Format : MPEG Video
Format version : Version 2
Format profile : [email protected]
Format settings, BVOP : No
Format settings, Matrix : Default
Duration : 1mn 9s
Bit rate mode : Variable
Bit rate : 3 194 Kbps
Maximum bit rate : 9 000 Kbps
Width : 720 pixels
Height : 480 pixels
Display aspect ratio : 16:9
Frame rate : 29.970 fps
Standard : NTSC
Color space : YUV
Chroma subsampling : 4:2:0
Bit depth : 8 bits
Scan type : Progressive
Scan order : Top Field First
Compression mode : Lossy
Bits/(Pixel*Frame) : 0.308
Time code of first frame : 00:00:00;00
Time code source : Group of pictures header
Stream size : 26.5 MiB (66%)
Color primaries : BT.601 NTSC
Transfer characteristics : BT.601
Matrix coefficients : BT.601

Audio
ID : 189 (0xBD)-160 (0xA0)
Format : PCM
Format settings, Endianness : Big
Format settings, Sign : Signed
Muxing mode : DVD-Video
Duration : 1mn 9s
Bit rate mode : Constant
Bit rate : 1 536 Kbps
Channel(s) : 2 channels
Sampling rate : 48.0 KHz
Bit depth : 16 bits
Stream size : 12.7 MiB (32%)

Text #1
ID : 189 (0xBD)-32 (0x20)
Format : RLE
Format/Info : Run-length encoding
Muxing mode : DVD-Video

Text #2
ID : 189 (0xBD)-34 (0x22)
Format : RLE
Format/Info : Run-length encoding
Muxing mode : DVD-Video

Menu

General
Complete name : D:DownloadsStatus Quo - Live At Wembley ArenaVIDEOTSVTS01_1.VOB
Format : MPEG-PS
File size : 1 024 MiB
Duration : 14mn 28s
Overall bit rate mode : Variable
Overall bit rate : 9 886 Kbps

Video
ID : 224 (0xE0)
Format : MPEG Video
Format version : Version 2
Format profile : [email protected]
Format settings, BVOP : Yes
Format settings, Matrix : Custom
Format settings, GOP : Variable
Duration : 14mn 28s
Bit rate mode : Variable
Bit rate : 6 643 Kbps
Maximum bit rate : 9 800 Kbps
Width : 720 pixels
Height : 480 pixels
Display aspect ratio : 16:9
Frame rate : 23.976 fps
Standard : NTSC
Color space : YUV
Chroma subsampling : 4:2:0
Bit depth : 8 bits
Scan type : Progressive
Scan order : 2:3 Pulldown
Compression mode : Lossy
Bits/(Pixel*Frame) : 0.802
Time code of first frame : 01:00:00:00
Time code source : Group of pictures header
Stream size : 688 MiB (67%)

Audio #1
ID : 189 (0xBD)-137 (0x89)
Format : DTS
Format/Info : Digital Theater Systems
Mode : 16
Format settings, Endianness : Big
Muxing mode : DVD-Video
Duration : 14mn 28s
Bit rate mode : Constant
Bit rate : 1 510 Kbps
Channel(s) : 6 channels
Channel positions : Front: L C R, Side: L R, LFE
Sampling rate : 48.0 KHz
Bit depth : 24 bits
Compression mode : Lossy
Stream size : 156 MiB (15%)

Audio #2
ID : 189 (0xBD)-160 (0xA0)
Format : PCM
Format settings, Endianness : Big
Format settings, Sign : Signed
Muxing mode : DVD-Video
Duration : 14mn 28s
Bit rate mode : Constant
Bit rate : 1 536 Kbps
Channel(s) : 2 channels
Sampling rate : 48.0 KHz
Bit depth : 16 bits
Stream size : 159 MiB (16%)

Menu

General
Complete name : D:DownloadsStatus Quo - Live At Wembley ArenaVIDEOTSVTS01_2.VOB
Format : MPEG-PS
File size : 1 024 MiB
Duration : 14mn 27s
Overall bit rate mode : Variable
Overall bit rate : 9 906 Kbps

Video
ID : 224 (0xE0)
Format : MPEG Video
Format version : Version 2
Format profile : [email protected]
Format settings, BVOP : Yes
Format settings, Matrix : Custom
Format settings, GOP : M=3, N=12
Duration : 14mn 26s
Bit rate mode : Variable
Bit rate : 6 663 Kbps
Maximum bit rate : 9 800 Kbps
Width : 720 pixels
Height : 480 pixels
Display aspect ratio : 16:9
Frame rate : 23.976 fps
Standard : NTSC
Color space : YUV
Chroma subsampling : 4:2:0
Bit depth : 8 bits
Scan type : Progressive
Scan order : 2:3 Pulldown
Compression mode : Lossy
Bits/(Pixel*Frame) : 0.804
Time code of first frame : 01:14:28:12
Time code source : Group of pictures header
Stream size : 688 MiB (67%)

Audio #1
ID : 189 (0xBD)-137 (0x89)
Format : DTS
Format/Info : Digital Theater Systems
Mode : 16
Format settings, Endianness : Big
Muxing mode : DVD-Video
Duration : 14mn 27s
Bit rate mode : Constant
Bit rate : 1 510 Kbps
Channel(s) : 6 channels
Channel positions : Front: L C R, Side: L R, LFE
Sampling rate : 48.0 KHz
Bit depth : 24 bits
Compression mode : Lossy
Delay relative to video : -613ms
Stream size : 156 MiB (15%)

Audio #2
ID : 189 (0xBD)-160 (0xA0)
Format : PCM
Format settings, Endianness : Big
Format settings, Sign : Signed
Muxing mode : DVD-Video
Duration : 14mn 27s
Bit rate mode : Constant
Bit rate : 1 536 Kbps
Channel(s) : 2 channels
Sampling rate : 48.0 KHz
Bit depth : 16 bits
Delay relative to video : -615ms
Stream size : 159 MiB (16%)

Menu

General
Complete name : D:DownloadsStatus Quo - Live At Wembley ArenaVIDEOTSVTS01_3.VOB
Format : MPEG-PS
File size : 1 024 MiB
Duration : 14mn 27s
Overall bit rate mode : Variable
Overall bit rate : 9 904 Kbps

Video
ID : 224 (0xE0)
Format : MPEG Video
Format version : Version 2
Format profile : [email protected]
Format settings, BVOP : Yes
Format settings, Matrix : Custom
Format settings, GOP : Variable
Duration : 14mn 27s
Bit rate mode : Variable
Bit rate : 6 661 Kbps
Maximum bit rate : 9 800 Kbps
Width : 720 pixels
Height : 480 pixels
Display aspect ratio : 16:9
Frame rate : 23.976 fps
Standard : NTSC
Color space : YUV
Chroma subsampling : 4:2:0
Bit depth : 8 bits
Scan type : Progressive
Scan order : 2:3 Pulldown
Compression mode : Lossy
Bits/(Pixel*Frame) : 0.804
Time code of first frame : 01:28:54:18
Time code source : Group of pictures header
Stream size : 688 MiB (67%)

Audio #1
ID : 189 (0xBD)-137 (0x89)
Format : DTS
Format/Info : Digital Theater Systems
Mode : 16
Format settings, Endianness : Big
Muxing mode : DVD-Video
Duration : 14mn 27s
Bit rate mode : Constant
Bit rate : 1 510 Kbps
Channel(s) : 6 channels
Channel positions : Front: L C R, Side: L R, LFE
Sampling rate : 48.0 KHz
Bit depth : 24 bits
Compression mode : Lossy
Delay relative to video : -565ms
Stream size : 156 MiB (15%)

Audio #2
ID : 189 (0xBD)-160 (0xA0)
Format : PCM
Format settings, Endianness : Big
Format settings, Sign : Signed
Muxing mode : DVD-Video
Duration : 14mn 27s
Bit rate mode : Constant
Bit rate : 1 536 Kbps
Channel(s) : 2 channels
Sampling rate : 48.0 KHz
Bit depth : 16 bits
Delay relative to video : -570ms
Stream size : 159 MiB (16%)

Menu

General
Complete name : D:DownloadsStatus Quo - Live At Wembley ArenaVIDEOTSVTS01_4.VOB
Format : MPEG-PS
File size : 1 024 MiB
Duration : 14mn 27s
Overall bit rate mode : Variable
Overall bit rate : 9 905 Kbps

Video
ID : 224 (0xE0)
Format : MPEG Video
Format version : Version 2
Format profile : [email protected]
Format settings, BVOP : Yes
Format settings, Matrix : Custom
Format settings, GOP : Variable
Duration : 14mn 26s
Bit rate mode : Variable
Bit rate : 6 662 Kbps
Maximum bit rate : 9 800 Kbps
Width : 720 pixels
Height : 480 pixels
Display aspect ratio : 16:9
Frame rate : 23.976 fps
Standard : NTSC
Color space : YUV
Chroma subsampling : 4:2:0
Bit depth : 8 bits
Scan type : Progressive
Scan order : 2:3 Pulldown
Compression mode : Lossy
Bits/(Pixel*Frame) : 0.804
Time code of first frame : 01:43:21:01
Time code source : Group of pictures header
Stream size : 688 MiB (67%)

Audio #1
ID : 189 (0xBD)-137 (0x89)
Format : DTS
Format/Info : Digital Theater Systems
Mode : 16
Format settings, Endianness : Big
Muxing mode : DVD-Video
Duration : 14mn 27s
Bit rate mode : Constant
Bit rate : 1 510 Kbps
Channel(s) : 6 channels
Channel positions : Front: L C R, Side: L R, LFE
Sampling rate : 48.0 KHz
Bit depth : 24 bits
Compression mode : Lossy
Delay relative to video : -520ms
Stream size : 156 MiB (15%)

Audio #2
ID : 189 (0xBD)-160 (0xA0)
Format : PCM
Format settings, Endianness : Big
Format settings, Sign : Signed
Muxing mode : DVD-Video
Duration : 14mn 27s
Bit rate mode : Constant
Bit rate : 1 536 Kbps
Channel(s) : 2 channels
Sampling rate : 48.0 KHz
Bit depth : 16 bits
Delay relative to video : -513ms
Stream size : 159 MiB (16%)

Menu

General
Complete name : D:DownloadsStatus Quo - Live At Wembley ArenaVIDEOTSVTS01_5.VOB
Format : MPEG-PS
File size : 1 024 MiB
Duration : 14mn 27s
Overall bit rate mode : Variable
Overall bit rate : 9 906 Kbps

Video
ID : 224 (0xE0)
Format : MPEG Video
Format version : Version 2
Format profile : [email protected]
Format settings, BVOP : Yes
Format settings, Matrix : Custom
Format settings, GOP : Variable
Duration : 14mn 27s
Bit rate mode : Variable
Bit rate : 6 663 Kbps
Maximum bit rate : 9 800 Kbps
Width : 720 pixels
Height : 480 pixels
Display aspect ratio : 16:9
Frame rate : 23.976 fps
Standard : NTSC
Color space : YUV
Chroma subsampling : 4:2:0
Bit depth : 8 bits
Scan type : Progressive
Scan order : 2:3 Pulldown
Compression mode : Lossy
Bits/(Pixel*Frame) : 0.804
Time code of first frame : 01:57:47:05
Time code source : Group of pictures header
Stream size : 689 MiB (67%)

Audio #1
ID : 189 (0xBD)-137 (0x89)
Format : DTS
Format/Info : Digital Theater Systems
Mode : 16
Format settings, Endianness : Big
Muxing mode : DVD-Video
Duration : 14mn 27s
Bit rate mode : Constant
Bit rate : 1 510 Kbps
Channel(s) : 6 channels
Channel positions : Front: L C R, Side: L R, LFE
Sampling rate : 48.0 KHz
Bit depth : 24 bits
Compression mode : Lossy
Delay relative to video : -266ms
Stream size : 156 MiB (15%)

Audio #2
ID : 189 (0xBD)-160 (0xA0)
Format : PCM
Format settings, Endianness : Big
Format settings, Sign : Signed
Muxing mode : DVD-Video
Duration : 14mn 27s
Bit rate mode : Constant
Bit rate : 1 536 Kbps
Channel(s) : 2 channels
Sampling rate : 48.0 KHz
Bit depth : 16 bits
Delay relative to video : -265ms
Stream size : 159 MiB (16%)

Menu

General
Complete name : D:DownloadsStatus Quo - Live At Wembley ArenaVIDEOTSVTS01_6.VOB
Format : MPEG-PS
File size : 1 024 MiB
Duration : 14mn 27s
Overall bit rate mode : Variable
Overall bit rate : 9 904 Kbps

Video
ID : 224 (0xE0)
Format : MPEG Video
Format version : Version 2
Format profile : [email protected]
Format settings, BVOP : Yes
Format settings, Matrix : Custom
Format settings, GOP : Variable
Duration : 14mn 27s
Bit rate mode : Variable
Bit rate : 6 662 Kbps
Maximum bit rate : 9 800 Kbps
Width : 720 pixels
Height : 480 pixels
Display aspect ratio : 16:9
Frame rate : 23.976 fps
Standard : NTSC
Color space : YUV
Chroma subsampling : 4:2:0
Bit depth : 8 bits
Scan type : Progressive
Scan order : 2:3 Pulldown
Compression mode : Lossy
Bits/(Pixel*Frame) : 0.804
Time code of first frame : 02:12:13:13
Time code source : Group of pictures header
Stream size : 689 MiB (67%)

Audio #1
ID : 189 (0xBD)-137 (0x89)
Format : DTS
Format/Info : Digital Theater Systems
Mode : 16
Format settings, Endianness : Big
Muxing mode : DVD-Video
Duration : 14mn 27s
Bit rate mode : Constant
Bit rate : 1 510 Kbps
Channel(s) : 6 channels
Channel positions : Front: L C R, Side: L R, LFE
Sampling rate : 48.0 KHz
Bit depth : 24 bits
Compression mode : Lossy
Delay relative to video : -363ms
Stream size : 156 MiB (15%)

Audio #2
ID : 189 (0xBD)-160 (0xA0)
Format : PCM
Format settings, Endianness : Big
Format settings, Sign : Signed
Muxing mode : DVD-Video
Duration : 14mn 27s
Bit rate mode : Constant
Bit rate : 1 536 Kbps
Channel(s) : 2 channels
Sampling rate : 48.0 KHz
Bit depth : 16 bits
Delay relative to video : -355ms
Stream size : 159 MiB (16%)

Menu

General
Complete name : D:DownloadsStatus Quo - Live At Wembley ArenaVIDEOTSVTS01_7.VOB
Format : MPEG-PS
File size : 285 MiB
Duration : 4mn 1s
Overall bit rate mode : Variable
Overall bit rate : 9 878 Kbps

Video
ID : 224 (0xE0)
Format : MPEG Video
Format version : Version 2
Format profile : [email protected]
Format settings, BVOP : Yes
Format settings, Matrix : Custom
Format settings, GOP : Variable
Duration : 4mn 1s
Bit rate mode : Variable
Bit rate : 6 636 Kbps
Maximum bit rate : 9 800 Kbps
Width : 720 pixels
Height : 480 pixels
Display aspect ratio : 16:9
Frame rate : 23.976 fps
Standard : NTSC
Color space : YUV
Chroma subsampling : 4:2:0
Bit depth : 8 bits
Scan type : Progressive
Scan order : 2:3 Pulldown
Compression mode : Lossy
Bits/(Pixel*Frame) : 0.801
Time code of first frame : 02:26:40:00
Time code source : Group of pictures header
Stream size : 191 MiB (67%)

Audio #1
ID : 189 (0xBD)-137 (0x89)
Format : DTS
Format/Info : Digital Theater Systems
Mode : 16
Format settings, Endianness : Big
Muxing mode : DVD-Video
Duration : 4mn 1s
Bit rate mode : Constant
Bit rate : 1 510 Kbps
Channel(s) : 6 channels
Channel positions : Front: L C R, Side: L R, LFE
Sampling rate : 48.0 KHz
Bit depth : 24 bits
Compression mode : Lossy
Delay relative to video : -505ms
Stream size : 43.5 MiB (15%)

Audio #2
ID : 189 (0xBD)-160 (0xA0)
Format : PCM
Format settings, Endianness : Big
Format settings, Sign : Signed
Muxing mode : DVD-Video
Duration : 4mn 1s
Bit rate mode : Constant
Bit rate : 1 536 Kbps
Channel(s) : 2 channels
Sampling rate : 48.0 KHz
Bit depth : 16 bits
Delay relative to video : -505ms
Stream size : 44.3 MiB (16%) `

Скриншоты меню

imageimageimage

Скриншоты

imageimageimageimage

imageimageimageimage

imageimageimageimage

Данная раздача предназначена для ознакомления.

image

Ознакомился сам? Не забудь позаботиться о ближнем - помоги ознакомиться и ему, продолжая сидировать. И тогда тебя не посетит Ктулху !

image


More at ibit.to
And ibit.uno
And ibit.ws

Comments

4 years ago

Covers DVD

4 years ago

Я не особый поклонник SQ , но концерт понравился, старый добрый рок н рол он всегда будет в цене,концерт - как зажгли с первой композиции так все на одном дыхании - класс,раздающему спасибо .

4 years ago

416271 писал(а): 65651226Огромная благодарность создателю! Вы заказали, вот я выполнил обещанное. Только вот менюшка не анимированная, потому что и на исходнике была статическая, озвученная. kruizz писал(а): 65668587Я не особый поклонник SQ , но концерт понравился, старый добрый рок н рол он всегда будет в цене,концерт - как зажгли с первой композиции так все на одном дыхании - класс Я тоже "спокоен" по отношению к Status Quo, хотя парочку их DVD имею в видеотеке (например А насчёт "зажигательности концерта" полностью согласен. Хоть и немолоды уже, но ещё могут "дать стране угля". Всем пожалуйста и приятного просмотра.

4 years ago

Что это такое? Почему не прозвучала In the Army Now?

4 years ago

Lord_Angelslayer писал(а): 65788415Что это такое? Почему не прозвучала In the Army Now? Читать здесь

8 months ago

Огромное спасибо!Дайте скачать

Files

VIDEO_TS/VTS_01_1.VOB 1.0 GB
VIDEO_TS/VTS_01_2.VOB 1.0 GB
VIDEO_TS/VTS_01_6.VOB 1.0 GB
VIDEO_TS/VTS_01_5.VOB 1.0 GB
VIDEO_TS/VTS_01_4.VOB 1.0 GB
VIDEO_TS/VTS_01_3.VOB 1.0 GB
VIDEO_TS/VTS_01_7.VOB 285 MB
VIDEO_TS/VTS_01_0.VOB 40 MB
VIDEO_TS/VIDEO_TS.VOB 17 MB
VIDEO_TS/VTS_01_0.IFO 60 kB
VIDEO_TS/VTS_01_0.BUP 60 kB
VIDEO_TS/VIDEO_TS.BUP 12 kB
VIDEO_TS/VIDEO_TS.IFO 12 kB

Stream

Downloading Seeding Status Quo - Live At Wembley Arena from to 0 peers.
of
0 b/s / ↗0 b/s