• 0
  • 0
  • done
Anonymous Download
  • In The Mood For Love (OST)
  • 268 MB
  • gost'
  • Soundtrack
  • Саундтреки, кара
Warning! Use a VPN When Downloading Torrents!
Your IP Address is ,
Your Internet Provider can see when you download torrents! Hide your IP ADDRESS with a VPN
We strongly recommend Trust.Zone VPN to hide your torrenting. It's FREE!
DOWNLOAD VPN

Description

Любовное настроение / In the Mood for Love

image

Жанр : Score / Soundtrack

Композитор : Shigeru Umebayashi

Год выпуска диска : 2005

Год выпуска фильма : 2000

Страна-производитель диска : Europe

Издатель (лейбл) : EMI / Virgin

Номер по каталогу : 8505422 / LC 0542

Аудио кодек : FLAC (*.flac)

Тип рипа : image+.cue

Битрейт аудио : lossless

Продолжительность : 00:48:25

Источник : AvaxHome (CerealRipper)

Наличие сканов в содержимом раздачи : да

Треклист :
01 - Shigeru Umebayashi - Yumeji's Theme
02 - Unknown Artist - Mo-wan's Dialogue
03 - Michael Galasso - Angkor Wat Theme I
04 - Michael Galasso - ITMFL I
05 - Nat King Cole - Aquellos Djos Verdes
06 - Deng Bai Ying - Shuang Suang Yan
07 - Michael Galasso - ITMFL II
08 - Zhou Xuan - Radio Zhou Xuan Announcement / Hua Yang De Nian Hua
09 - Nat King Cole - Quizas, Quizas, Quizas (Perhaps, Perhaps, Perhaps)
10 - Rebecca Pan - Bengawan Solo
11 - Michael Galasso - ITMFL III
12 - Tan Xin Pei - Si Lang Tan Mu
13 - Zhang Yun Xian And Hou Li Jun - Shuang Ma Hui
14 - Michael Galasso - Blue
15 - Zheng Jun Mian And Li Hong - Hong Niang Hui Zhang Sheng
16 - Nat King Cole - Li-zhen's Dialogue / Te Quiero Dijiste (Magic Is The Moonlight)
17 - Michael Galasso - Angkor Wat Theme II
18 - Chiu Wai Ping - Yue Er Wan Wan Zhao Jiu Zhou
19 - Michael Galasso - Cassanova's Flute
20 - Shigeru Umebayashi - Yumeji's Theme / Li-zhen's Dialogue
21 - Michael Galasso - Angkor Wat Theme Finale

Лог создания рипа

`X Lossless Decoder version 20090320 (105.1)

XLD extraction logfile from 2009-04-16 06:53:43 -0300

Various Artists / In the Mood for Love (OST)

Used drive : MATSHITA DVD-R UJ-875 (revision DA09)

Use cdparanoia mode : YES (CDParanoia III 10.2 engine)
Disable audio cache : OK for the drive with cache less than 2750KB
Make use of C2 pointers : NO
Read offset correction : 102
Max retry count : 100

TOC of the extracted CD
Track | Start | Length | Start sector | End sector


1 | 00:00:00 | 02:29:23 | 0 | 11197
2 | 02:29:23 | 00:09:52 | 11198 | 11924
3 | 02:39:00 | 02:12:32 | 11925 | 21856
4 | 04:51:32 | 02:09:17 | 21857 | 31548
5 | 07:00:49 | 02:12:19 | 31549 | 41467
6 | 09:12:68 | 02:53:41 | 41468 | 54483
7 | 12:06:34 | 01:03:35 | 54484 | 59243
8 | 13:09:69 | 03:18:34 | 59244 | 74127
9 | 16:28:28 | 02:45:16 | 74128 | 86518
10 | 19:13:44 | 02:51:62 | 86519 | 99405
11 | 22:05:31 | 01:32:65 | 99406 | 106370
12 | 23:38:21 | 00:21:43 | 106371 | 107988
13 | 23:59:64 | 01:13:49 | 107989 | 113512
14 | 25:13:38 | 05:44:46 | 113513 | 139358
15 | 30:58:09 | 01:59:36 | 139359 | 148319
16 | 32:57:45 | 02:42:02 | 148320 | 160471
17 | 35:39:47 | 02:05:70 | 160472 | 169916
18 | 37:45:42 | 03:10:41 | 169917 | 184207
19 | 40:56:08 | 02:18:32 | 184208 | 194589
20 | 43:14:40 | 02:29:14 | 194590 | 205778
21 | 45:43:54 | 02:42:01 | 205779 | 217929

All Tracks
Filename : /In The Mood For Love (OST)/In the Mood for Love (OST).flac
Album gain : -2.98 dB
Peak : 1.000000
CRC32 hash (test run) : 079509C4
CRC32 hash : 079509C4
CRC32 hash (skip zero) : ACB86495
Statistics
Read error : 0
Skipped (treated as error) : 0
Edge jitter error (maybe fixed) : 0
Atom jitter error (maybe fixed) : 0
Drift error (maybe fixed) : 0
Dropped bytes error (maybe fixed) : 0
Duplicated bytes error (maybe fixed) : 0
Inconsistency in error sectors : 0

Track 01
Track gain : 3.31 dB
Peak : 0.592163
CRC32 hash (test run) : E0291FC4
CRC32 hash : E0291FC4
CRC32 hash (skip zero) : 0129031A
AccurateRip signature : BBA8E4E2
->Accurately ripped! (confidence 21)
Statistics
Read error : 0
Skipped (treated as error) : 0
Edge jitter error (maybe fixed) : 0
Atom jitter error (maybe fixed) : 0
Drift error (maybe fixed) : 0
Dropped bytes error (maybe fixed) : 0
Duplicated bytes error (maybe fixed) : 0
Inconsistency in error sectors : 0

Track 02
Track gain : 8.04 dB
Peak : 0.357727
CRC32 hash (test run) : CD945E96
CRC32 hash : CD945E96
CRC32 hash (skip zero) : 536785FE
AccurateRip signature : E8F1057B
->Accurately ripped! (confidence 21)
Statistics
Read error : 0
Skipped (treated as error) : 0
Edge jitter error (maybe fixed) : 0
Atom jitter error (maybe fixed) : 0
Drift error (maybe fixed) : 0
Dropped bytes error (maybe fixed) : 0
Duplicated bytes error (maybe fixed) : 0
Inconsistency in error sectors : 0

Track 03
Track gain : -2.23 dB
Peak : 0.725677
CRC32 hash (test run) : 7D3A5762
CRC32 hash : 7D3A5762
CRC32 hash (skip zero) : 7DEB9030
AccurateRip signature : 37F6687E
->Accurately ripped! (confidence 21)
Statistics
Read error : 0
Skipped (treated as error) : 0
Edge jitter error (maybe fixed) : 0
Atom jitter error (maybe fixed) : 0
Drift error (maybe fixed) : 0
Dropped bytes error (maybe fixed) : 0
Duplicated bytes error (maybe fixed) : 0
Inconsistency in error sectors : 0

Track 04
Track gain : 1.19 dB
Peak : 0.504578
CRC32 hash (test run) : 7E969763
CRC32 hash : 7E969763
CRC32 hash (skip zero) : 2630D34C
AccurateRip signature : 9A5F92A3
->Accurately ripped! (confidence 21)
Statistics
Read error : 0
Skipped (treated as error) : 0
Edge jitter error (maybe fixed) : 0
Atom jitter error (maybe fixed) : 0
Drift error (maybe fixed) : 0
Dropped bytes error (maybe fixed) : 0
Duplicated bytes error (maybe fixed) : 0
Inconsistency in error sectors : 0

Track 05
Track gain : -2.33 dB
Peak : 0.786163
CRC32 hash (test run) : 5CEA5BF1
CRC32 hash : 5CEA5BF1
CRC32 hash (skip zero) : 4CF61F35
AccurateRip signature : 0271AA27
->Accurately ripped! (confidence 21)
Statistics
Read error : 0
Skipped (treated as error) : 0
Edge jitter error (maybe fixed) : 0
Atom jitter error (maybe fixed) : 0
Drift error (maybe fixed) : 0
Dropped bytes error (maybe fixed) : 0
Duplicated bytes error (maybe fixed) : 0
Inconsistency in error sectors : 0

Track 06
Track gain : -5.31 dB
Peak : 0.822296
CRC32 hash (test run) : 8E45890B
CRC32 hash : 8E45890B
CRC32 hash (skip zero) : 1F500A02
AccurateRip signature : 7D0B040C
->Accurately ripped! (confidence 21)
Statistics
Read error : 0
Skipped (treated as error) : 0
Edge jitter error (maybe fixed) : 0
Atom jitter error (maybe fixed) : 0
Drift error (maybe fixed) : 0
Dropped bytes error (maybe fixed) : 0
Duplicated bytes error (maybe fixed) : 0
Inconsistency in error sectors : 0

Track 07
Track gain : 1.16 dB
Peak : 0.376160
CRC32 hash (test run) : 895624B2
CRC32 hash : 895624B2
CRC32 hash (skip zero) : DA99D39B
AccurateRip signature : 3441AED2
->Accurately ripped! (confidence 21)
Statistics
Read error : 0
Skipped (treated as error) : 0
Edge jitter error (maybe fixed) : 0
Atom jitter error (maybe fixed) : 0
Drift error (maybe fixed) : 0
Dropped bytes error (maybe fixed) : 0
Duplicated bytes error (maybe fixed) : 0
Inconsistency in error sectors : 0

Track 08
Track gain : -1.40 dB
Peak : 0.745544
CRC32 hash (test run) : CBCA01E3
CRC32 hash : CBCA01E3
CRC32 hash (skip zero) : A79D430D
AccurateRip signature : 0981DC50
->Accurately ripped! (confidence 21)
Statistics
Read error : 0
Skipped (treated as error) : 0
Edge jitter error (maybe fixed) : 0
Atom jitter error (maybe fixed) : 0
Drift error (maybe fixed) : 0
Dropped bytes error (maybe fixed) : 0
Duplicated bytes error (maybe fixed) : 0
Inconsistency in error sectors : 0

Track 09
Track gain : -0.64 dB
Peak : 0.695831
CRC32 hash (test run) : 932FC73D
CRC32 hash : 932FC73D
CRC32 hash (skip zero) : E84092DB
AccurateRip signature : C8A7E650
->Accurately ripped! (confidence 21)
Statistics
Read error : 0
Skipped (treated as error) : 0
Edge jitter error (maybe fixed) : 0
Atom jitter error (maybe fixed) : 0
Drift error (maybe fixed) : 0
Dropped bytes error (maybe fixed) : 0
Duplicated bytes error (maybe fixed) : 0
Inconsistency in error sectors : 0

Track 10
Track gain : 3.25 dB
Peak : 0.557251
CRC32 hash (test run) : 70DFF5DF
CRC32 hash : 70DFF5DF
CRC32 hash (skip zero) : 63E2B548
AccurateRip signature : E2588F50
->Accurately ripped! (confidence 21)
Statistics
Read error : 0
Skipped (treated as error) : 0
Edge jitter error (maybe fixed) : 0
Atom jitter error (maybe fixed) : 0
Drift error (maybe fixed) : 0
Dropped bytes error (maybe fixed) : 0
Duplicated bytes error (maybe fixed) : 0
Inconsistency in error sectors : 0

Track 11
Track gain : 3.15 dB
Peak : 0.517792
CRC32 hash (test run) : 73C04900
CRC32 hash : 73C04900
CRC32 hash (skip zero) : 51A08569
AccurateRip signature : 84C992A0
->Accurately ripped! (confidence 21)
Statistics
Read error : 0
Skipped (treated as error) : 0
Edge jitter error (maybe fixed) : 0
Atom jitter error (maybe fixed) : 0
Drift error (maybe fixed) : 0
Dropped bytes error (maybe fixed) : 0
Duplicated bytes error (maybe fixed) : 0
Inconsistency in error sectors : 0

Track 12
Track gain : -3.30 dB
Peak : 0.610138
CRC32 hash (test run) : 31CCCE7D
CRC32 hash : 31CCCE7D
CRC32 hash (skip zero) : 2E2AD95D
AccurateRip signature : C14C7C99
->Accurately ripped! (confidence 21)
Statistics
Read error : 0
Skipped (treated as error) : 0
Edge jitter error (maybe fixed) : 0
Atom jitter error (maybe fixed) : 0
Drift error (maybe fixed) : 0
Dropped bytes error (maybe fixed) : 0
Duplicated bytes error (maybe fixed) : 0
Inconsistency in error sectors : 0

Track 13
Track gain : -1.56 dB
Peak : 0.673401
CRC32 hash (test run) : ECE5F3F0
CRC32 hash : ECE5F3F0
CRC32 hash (skip zero) : 57355DF7
AccurateRip signature : 0AF8357D
->Accurately ripped! (confidence 21)
Statistics
Read error : 0
Skipped (treated as error) : 0
Edge jitter error (maybe fixed) : 0
Atom jitter error (maybe fixed) : 0
Drift error (maybe fixed) : 0
Dropped bytes error (maybe fixed) : 0
Duplicated bytes error (maybe fixed) : 0
Inconsistency in error sectors : 0

Track 14
Track gain : -3.26 dB
Peak : 1.000000
CRC32 hash (test run) : B7413021
CRC32 hash : B7413021
CRC32 hash (skip zero) : 242C279F
AccurateRip signature : EFAC7B3B
->Accurately ripped! (confidence 21)
Statistics
Read error : 0
Skipped (treated as error) : 0
Edge jitter error (maybe fixed) : 0
Atom jitter error (maybe fixed) : 0
Drift error (maybe fixed) : 0
Dropped bytes error (maybe fixed) : 0
Duplicated bytes error (maybe fixed) : 0
Inconsistency in error sectors : 0

Track 15
Track gain : 1.58 dB
Peak : 0.341461
CRC32 hash (test run) : 1187FF00
CRC32 hash : 1187FF00
CRC32 hash (skip zero) : 9F45DA21
AccurateRip signature : 9D7B2F4B
->Accurately ripped! (confidence 21)
Statistics
Read error : 0
Skipped (treated as error) : 0
Edge jitter error (maybe fixed) : 0
Atom jitter error (maybe fixed) : 0
Drift error (maybe fixed) : 0
Dropped bytes error (maybe fixed) : 0
Duplicated bytes error (maybe fixed) : 0
Inconsistency in error sectors : 0

Track 16
Track gain : -1.35 dB
Peak : 0.795593
CRC32 hash (test run) : 5000FD4E
CRC32 hash : 5000FD4E
CRC32 hash (skip zero) : E1A5EC6D
AccurateRip signature : 0FBD7C4D
->Accurately ripped! (confidence 21)
Statistics
Read error : 0
Skipped (treated as error) : 0
Edge jitter error (maybe fixed) : 0
Atom jitter error (maybe fixed) : 0
Drift error (maybe fixed) : 0
Dropped bytes error (maybe fixed) : 0
Duplicated bytes error (maybe fixed) : 0
Inconsistency in error sectors : 0

Track 17
Track gain : -3.19 dB
Peak : 0.676575
CRC32 hash (test run) : CD98FBDD
CRC32 hash : CD98FBDD
CRC32 hash (skip zero) : A393E628
AccurateRip signature : A81FA0A1
->Accurately ripped! (confidence 21)
Statistics
Read error : 0
Skipped (treated as error) : 0
Edge jitter error (maybe fixed) : 0
Atom jitter error (maybe fixed) : 0
Drift error (maybe fixed) : 0
Dropped bytes error (maybe fixed) : 0
Duplicated bytes error (maybe fixed) : 0
Inconsistency in error sectors : 0

Track 18
Track gain : 1.55 dB
Peak : 0.455200
CRC32 hash (test run) : 6A4964B1
CRC32 hash : 6A4964B1
CRC32 hash (skip zero) : 8319D4AF
AccurateRip signature : F8BFF3BB
->Accurately ripped! (confidence 21)
Statistics
Read error : 0
Skipped (treated as error) : 0
Edge jitter error (maybe fixed) : 0
Atom jitter error (maybe fixed) : 0
Drift error (maybe fixed) : 0
Dropped bytes error (maybe fixed) : 0
Duplicated bytes error (maybe fixed) : 0
Inconsistency in error sectors : 0

Track 19
Track gain : -4.49 dB
Peak : 1.000000
CRC32 hash (test run) : 7592341D
CRC32 hash : 7592341D
CRC32 hash (skip zero) : 2C6FAF1B
AccurateRip signature : 053AF303
->Accurately ripped! (confidence 21)
Statistics
Read error : 0
Skipped (treated as error) : 0
Edge jitter error (maybe fixed) : 0
Atom jitter error (maybe fixed) : 0
Drift error (maybe fixed) : 0
Dropped bytes error (maybe fixed) : 0
Duplicated bytes error (maybe fixed) : 0
Inconsistency in error sectors : 0

Track 20
Track gain : 3.28 dB
Peak : 0.592163
CRC32 hash (test run) : 1D6E4775
CRC32 hash : 1D6E4775
CRC32 hash (skip zero) : F29B7270
AccurateRip signature : 596CB680
->Accurately ripped! (confidence 21)
Statistics
Read error : 0
Skipped (treated as error) : 0
Edge jitter error (maybe fixed) : 0
Atom jitter error (maybe fixed) : 0
Drift error (maybe fixed) : 0
Dropped bytes error (maybe fixed) : 0
Duplicated bytes error (maybe fixed) : 0
Inconsistency in error sectors : 0

Track 21
Track gain : -4.54 dB
Peak : 0.984680
CRC32 hash (test run) : 92D83E1B
CRC32 hash : 92D83E1B
CRC32 hash (skip zero) : 9AFC8A6E
AccurateRip signature : AC6EE389
->Accurately ripped! (confidence 21)
Statistics
Read error : 0
Skipped (treated as error) : 0
Edge jitter error (maybe fixed) : 0
Atom jitter error (maybe fixed) : 0
Drift error (maybe fixed) : 0
Dropped bytes error (maybe fixed) : 0
Duplicated bytes error (maybe fixed) : 0
Inconsistency in error sectors : 0

No errors occurred

End of status report `

Лог проверки качества

`AUDIOCHECKER v2.0 beta (build 457) - by Dester - [email protected]
~~~~~~~~~~~~~~~~~~~~~~~~~~~~~~~~~~
-=== DO NOT EDIT THIS FILE! ===-

Path: ...In The Mood For Love (OST)

1 -=- In the Mood for Love (OST).flac -=- CDDA (100%) `


More at ibit.to
And ibit.uno
And ibit.ws

Comments

6 years ago

Спасибо за это чудо! Потрясающее музыкальное сопровождение! Хочется слушать бесконечно.

5 years ago

волшебная музыка и песни... всегда возвращают в атмосферу кино.

Files

In the Mood for Love (OST).flac 208 MB
Scans/Case.png 9.9 MB
Scans/Case-Disc.png 9.7 MB
Scans/Booklet/bk1.png 9.2 MB
Scans/Booklet/bk3.png 9.0 MB
Scans/Booklet/bk4.png 8.6 MB
Scans/Booklet/bk2.png 8.2 MB
Scans/Back.png 5.1 MB
In the Mood for Love (OST).log 17 kB
In the Mood for Love (OST).cue 4.3 kB

Stream

Downloading Seeding In The Mood For Love (OST) from to 0 peers.
of
0 b/s / ↗0 b/s