• 2,147,483,647
  • 771
Download
  • SoundTrack_The Chumscrubber
  • 291 MB
  • alts_job
  • SoundTrack Chumscrubber
  • Саундтреки, караоке и мюзиклы

Description

James Horner - The Chumscrubber / Чамскраббер

image

Жанр : Score

Год выпуска диска : 2005

Производитель диска : USA

Аудио кодек : FLAC

Тип рипа : tracks+.cue

Битрейт аудио : lossless

Продолжительность : 55:22

Трэклист :

  1. Phantom Planet
    • Our House
    1. The Like
    • Bridge To Nowhere
    1. Patrol
    • Run
    1. Placebo
    • Pure Morning
    1. Annetenna
    • Oblivion
    1. James Horner
    • Spreading Happiness All Around
    1. James Horner
    • Kidnapping The Wrong Charlie
    1. James Horner
    • Dolphins
    1. James Horner
    • Pot Casserole
    1. James Horner
    • Digging Montage
    1. James Horner
    • Parental Rift / The Chumscrubber
    1. James Horner
    • "Not Fun Anymore..."
    1. James Horner
    • A Confluence Of Families
    1. James Horner
    • The End

.log

Exact Audio Copy V0.99 prebeta 5 from 4. May 2009

EAC extraction logfile from 5. August 2009, 9:11

Horner, James / The Chumscrubber

Used drive : Optiarc DVD RW AD-7170A Adapter: 0 ID: 0

Read mode : Secure
Utilize accurate stream : Yes
Defeat audio cache : Yes
Make use of C2 pointers : No

Read offset correction : 48
Overread into Lead-In and Lead-Out : No
Fill up missing offset samples with silence : Yes
Delete leading and trailing silent blocks : No
Null samples used in CRC calculations : Yes
Used interface : Native Win32 interface for Win NT & 2000
Gap handling : Appended to previous track

Used output format : User Defined Encoder
Selected bitrate : 320 kBit/s
Quality : High
Add ID3 tag : No
Command line compressor : C:Program FilesExact Audio CopyFlacflac.exe
Additional command line options : -8 -V -T "ARTIST=%a" -T "TITLE=%t" -T "ALBUM=%g" -T "DATE=%y" -T "TRACKNUMBER=%n" -T "GENRE=%m" -T "COMMENT=EAC FLAC -8" %s

TOC of the extracted CD

Track | Start | Length | Start sector | End sector


1 | 0:00.00 | 2:58.15 | 0 | 13364
2 | 2:58.15 | 3:16.65 | 13365 | 28129
3 | 6:15.05 | 5:58.25 | 28130 | 55004
4 | 12:13.30 | 3:48.37 | 55005 | 72141
5 | 16:01.67 | 4:24.08 | 72142 | 91949
6 | 20:26.00 | 2:03.45 | 91950 | 101219
7 | 22:29.45 | 2:07.32 | 101220 | 110776
8 | 24:37.02 | 2:44.33 | 110777 | 123109
9 | 27:21.35 | 2:25.45 | 123110 | 134029
10 | 29:47.05 | 7:07.60 | 134030 | 166114
11 | 36:54.65 | 3:19.40 | 166115 | 181079
12 | 40:14.30 | 3:28.35 | 181080 | 196714
13 | 43:42.65 | 8:16.00 | 196715 | 233914
14 | 51:58.65 | 3:23.70 | 233915 | 249209

Track 1

Filename K:SoundTrack_The Chumscrubber 01. Horner, James – Our House.wav

Pre-gap length 0:00:02.00

Peak level 100.0 %
Track quality 100.0 %
Test CRC D5BDF9EE
Copy CRC D5BDF9EE
Copy OK

Track 2

Filename K:SoundTrack_The Chumscrubber 02. Horner, James – Bridge to Nowhere.wav

Peak level 98.8 %
Track quality 100.0 %
Test CRC DB006894
Copy CRC DB006894
Copy OK

Track 3

Filename K:SoundTrack_The Chumscrubber 03. Horner, James – Run.wav

Peak level 100.0 %
Track quality 100.0 %
Test CRC E4675089
Copy CRC E4675089
Copy OK

Track 4

Filename K:SoundTrack_The Chumscrubber 04. Horner, James – Pure Morning.wav

Peak level 100.0 %
Track quality 100.0 %
Test CRC B745D6E6
Copy CRC B745D6E6
Copy OK

Track 5

Filename K:SoundTrack_The Chumscrubber 05. Horner, James – Oblivion.wav

Peak level 100.0 %
Track quality 100.0 %
Test CRC D72F8C85
Copy CRC D72F8C85
Copy OK

Track 6

Filename K:SoundTrack_The Chumscrubber 06. Horner, James – Spreading Happiness All Around.wav

Peak level 100.0 %
Track quality 100.0 %
Test CRC BE98F584
Copy CRC BE98F584
Copy OK

Track 7

Filename K:SoundTrack_The Chumscrubber 07. Horner, James – Kidnapping the Wrong Charlie.wav

Peak level 100.0 %
Track quality 100.0 %
Test CRC 68A0F1BB
Copy CRC 68A0F1BB
Copy OK

Track 8

Filename K:SoundTrack_The Chumscrubber 08. Horner, James – Dolphins.wav

Peak level 100.0 %
Track quality 100.0 %
Test CRC E5E98846
Copy CRC E5E98846
Copy OK

Track 9

Filename K:SoundTrack_The Chumscrubber 09. Horner, James – Pot Casserole.wav

Peak level 100.0 %
Track quality 100.0 %
Test CRC C56FA0EE
Copy CRC C56FA0EE
Copy OK

Track 10

Filename K:SoundTrack_The Chumscrubber 10. Horner, James – Digging Montage.wav

Peak level 98.3 %
Track quality 100.0 %
Test CRC 27398861
Copy CRC 27398861
Copy OK

Track 11

Filename K:SoundTrack_The Chumscrubber 11. Horner, James – Parental Rift - The Chumscrubber.wav

Peak level 100.0 %
Track quality 100.0 %
Test CRC 13C46ACE
Copy CRC 13C46ACE
Copy OK

Track 12

Filename K:SoundTrack_The Chumscrubber 12. Horner, James – 'Not Fun Anymore'.wav

Peak level 98.9 %
Track quality 100.0 %
Test CRC 58F8D2E0
Copy CRC 58F8D2E0
Copy OK

Track 13

Filename K:SoundTrack_The Chumscrubber 13. Horner, James – A Confluence of Families.wav

Peak level 100.0 %
Track quality 100.0 %
Test CRC 3CA010BB
Copy CRC 3CA010BB
Copy OK

Track 14

Filename K:SoundTrack_The Chumscrubber 14. Horner, James – The End.wav

Peak level 96.6 %
Track quality 100.0 %
Test CRC 4D617647
Copy CRC 4D617647
Copy OK

No errors occurred

End of status report


Не уходите как можно дольше с раздачи. И конечно же оставляйте коменты. Незабываем "+"


Всегда могу дораздать, пишите в личку


More at ibit.to
And ibit.uno
And ibit.am
And ibit.ws

Comments

13 years ago

Огромное спасибо! Очень давно искал, и наконец нашел благодаря Вашим усилиям! Если не секрет, откуда рип?

13 years ago

LezzyquixПожалуйста! Не секрет. Рип мой, каверы (буклет) нашёл где то в сети.

13 years ago

Кстати говоря, на саундтреке отсутствует классная песня Rooney - Sleep Song - ее студийный вариант (звучавший в фильме) можно разыскать только в мп3.

13 years ago

Lezzyquix писал(а): Rooney - Sleep Song Да, хорошая песня. Вот здесь она в lossless. тут

12 years ago

Что это за такой спектр корявый тогда, если это lossless? не апконверт случайно? картинка спектра 03. Horner, James – Run

Files

03. Horner, James – Run.flac 39 MB
13. Horner, James – A Confluence of Families.flac 37 MB
10. Horner, James – Digging Montage.flac 31 MB
05. Horner, James – Oblivion.flac 28 MB
04. Horner, James – Pure Morning.flac 24 MB
02. Horner, James – Bridge to Nowhere.flac 23 MB
01. Horner, James – Our House.flac 17 MB
11. Horner, James – Parental Rift - The Chumscrubber.flac 16 MB
14. Horner, James – The End.flac 16 MB
12. Horner, James – 'Not Fun Anymore'.flac 13 MB
08. Horner, James – Dolphins.flac 13 MB
09. Horner, James – Pot Casserole.flac 11 MB
06. Horner, James – Spreading Happiness All Around.flac 8.8 MB
07. Horner, James – Kidnapping the Wrong Charlie.flac 7.6 MB
The Chumscrubber-booklet1.jpg 2.1 MB
The Chumscrubber-back.jpg 1.6 MB
The Chumscrubber-booklet3.jpg 1.0 MB
The Chumscrubber-inlay.jpg 868 kB
The Chumscrubber-back2.jpg 574 kB
The Chumscrubber-booklet2.jpg 419 kB
The Chumscrubber-CD.jpg 348 kB
The Chumscrubber-front.jpg 53 kB
Horner, James - The Chumscrubber.log 5.2 kB
The Chumscrubber.cue 2.3 kB
Horner, James - The Chumscrubber.m3u 615 B

Stream

Downloading Seeding SoundTrack_The Chumscrubber from to 0 peers.
of
0 b/s / ↗0 b/s