• 0
  • 0
  • 37
Anonymous Downloadondemand_video
  • Sinbad.and.the.War.of.the.Furies.2016.1080p.BluRay.x264-UNVEiL[PRiME]
  • 7.7 GB
  • sub7
  • Sinbad Furies 2016 1080p BluRay x264 UNVEiL PRiME War
  • English
  • Divx/Xvid
Warning! Use a VPN When Downloading Torrents!
Your IP Address is ,
Your Internet Provider can see when you download torrents! Hide your IP ADDRESS with a VPN
We strongly recommend Trust.Zone VPN to hide your torrenting. It's FREE!
DOWNLOAD VPN
50%

Sinbad and the War of the Furies (2016)

  • Action Adventure Fantasy
  • On a treasure hunt gone wrong, modern-day adventurer Sinbad accidentally releases the Furies, three beautiful but terrible ancient beings powerful enough to threaten life on Earth.

    expand_more
    English

    Description

    Sinbad.and.the.War.of.the.Furies.2016.1080p.BluRay.x264-UNVEiL[PRiME]

    ImDb: http://www.imdb.com/title/tt6231588

    image

    Complete name : sinbad.and.the.war.of.the.furies.2016.1080p.bluray.x264-unveil[PRiME].mkv
    Format : Matroska
    Format version : Version 2
    File size : 7.65 GiB
    Duration : 1 h 30 min
    Overall bit rate : 12.1 Mb/s
    Writing application : mkvmerge v6.6.0 ('The Edge Of The In Between') built on Dec 1 2013 17:55:00
    Writing library : libebml v1.3.0 + libmatroska v1.4.1

    Video
    ID : 1
    Format : AVC
    Format/Info : Advanced Video Codec
    Format profile : [email protected]
    Format settings, CABAC : Yes
    Format settings, ReFrames : 4 frames
    Codec ID : VMPEG4/ISO/AVC
    Duration : 1 h 30 min
    Bit rate : 10.6 Mb/s
    Width : 1 920 pixels
    Height : 1 080 pixels
    Display aspect ratio : 16:9
    Frame rate mode : Constant
    Frame rate : 23.976 (24000/1001) FPS
    Color space : YUV
    Chroma subsampling : 4:2:0
    Bit depth : 8 bits
    Scan type : Progressive
    Bits/(Pixel*Frame) : 0.213
    Stream size : 6.54 GiB (86%)
    Writing library : x264 core 148 r2744 b97ae06
    Encoding settings : cabac=1 / ref=4 / deblock=1:-2:-2 / analyse=0x3:0x113 / me=umh / subme=8 / psy=1 / psy
    rd=1.00:0.00 / mixedref=1 / merange=16 / chromame=1 / trellis=1 / 8x8dct=1 / cqm=0 / deadzone=21,11 / fastpskip=1 / chromaqpoffset=-2 / threads=12 / lookaheadthreads=2 / slicedthreads=0 / nr=0 / decimate=1 / interlaced=0 / bluraycompat=0 / constrainedintra=0 / bframes=3 / bpyramid=2 / badapt=2 / bbias=0 / direct=3 / weightb=1 / opengop=0 / weightp=2 / keyint=240 / keyintmin=24 / scenecut=40 / intrarefresh=0 / rclookahead=50 / rc=2pass / mbtree=1 / bitrate=10569 / ratetol=1.0 / qcomp=0.60 / qpmin=0 / qpmax=69 / qpstep=4 / cplxblur=20.0 / qblur=0.5 / ipratio=1.40 / aq=1:1.00
    Language : English
    Default : Yes
    Forced : No

    Audio
    ID : 2
    Format : DTS
    Format/Info : Digital Theater Systems
    Mode : 16
    Format settings, Endianness : Big
    Codec ID : A_DTS
    Duration : 1 h 30 min
    Bit rate mode : Constant
    Bit rate : 1 509 kb/s
    Channel(s) : 6 channels
    Channel positions : Front: L C R, Side: L R, LFE
    Sampling rate : 48.0 kHz
    Frame rate : 93.750 FPS (512 spf)
    Bit depth : 24 bits
    Compression mode : Lossy
    Stream size : 979 MiB (12%)
    Language : English
    Default : Yes
    Forced : No

    Menu
    00:00:00.000 : en:00:00:00.000
    00:10:00.600 : en:00:10:00.600
    00:20:01.200 : en:00:20:01.200
    00:30:01.800 : en:00:30:01.800
    00:40:02.400 : en:00:40:02.400
    00:50:03.000 : en:00:50:03.000
    01:00:03.600 : en:01:00:03.600
    01:10:04.200 : en:01:10:04.200
    01:20:04.800 : en:01:20:04.800

    image

    Click Image To View Full Size

    image
    Click To View Screenshot
    Click To View Screenshot
    Click To View Screenshot


    More at ibit.to
    And ibit.uno
    And ibit.ws

    Reviews

    Comments

    Files

    Please Support!! Read More!!!.txt 200 B
    sinbad.and.the.war.of.the.furies.2016.1080p.bluray.x264-unveil.sample[PRiME].mkv 80 MB
    Torrent Downloaded From 1337x.to.txt 100 B
    Torrent Downloaded From ExtraTorrent.cc.txt 400 B
    Torrent downloaded from AhaShare.com.txt 100 B
    sinbad.and.the.war.of.the.furies.2016.1080p.bluray.x264-unveil[PRiME].mkv 7.6 GB
    Sample/sinbad.and.the.war.of.the.furies.2016.1080p.bluray.x264-unveil.sample[PRiME].mkv 80 MB
    Sinbad.and.the.War.of.the.Furies.2016.1080p.BluRay.x264UNVEiL[PRiME] -
    /sinbad.and.the.war.of.the.furies.2016.1080p.bluray.x264unveil.sample[PRiME].mkv 80 MB
    /Torrent Downloaded From 1337x.to.txt 69 B
    /Torrent Downloaded From ExtraTorrent.cc.txt 446 B
    /Torrent downloaded from AhaShare.com.txt 59 B
    /sinbad.and.the.war.of.the.furies.2016.1080p.bluray.x264unveil[PRiME].mkv 7.7 GB

    Stream

    Downloading Seeding Sinbad.and.the.War.of.the.Furies.2016.1080p.BluRay.x264-UNVEiL[PRiME] from to 0 peers.
    of
    0 b/s / ↗0 b/s