• 96
  • 71
  • done
Sponsored Downloadondemand_video
  • Simmba.2019.1080p.WEBRip.Hindi.AAC.MoviesMB
  • 1.8 GB
  • abuhamza420
  • Simmba 2019 1080p WEBRip Hindi AAC MoviesMB
  • Hindi
  • HD 1080p
69%

Simmba (2018)

  • Action Comedy Drama
  • A corrupt police officer enjoys all the perks of being an immoral and unethical police officer until an event which transforms his life completely and forces him to choose the righteous path.

    expand_more
    Hindi

    Description

    image

    Simmba.2019.1080p.WEBRip.Hindi.AAC.MoviesMB

    **MoviesMB
    **

    Downloadhub.Icu

    Buy PowerFull VPS And RDP From RDPArena.com

    **Use Coupon EXTRADESI get 30% Discount on All RDP and VPS Plans
    **

    image

    Video

    ID                                       : 1

    Format                                   : AVC

    Format/Info                              : Advanced Video Codec

    Format profile                           : [email protected]

    Format settings                          : CABAC / 5 Ref Frames

    Format settings, CABAC                   : Yes

    Format settings, RefFrames               : 5 frames

    Codec ID                                 : V_MPEG4/ISO/AVC

    Duration                                 : 2 h 32 min

    Bit rate                                 : 1 586 kb/s

    Width                                    : 1 920 pixels

    Height                                   : 816 pixels

    Display aspect ratio                     : 2.35:1

    Frame rate mode                          : Constant

    Frame rate                               : 25.000 FPS

    Color space                              : YUV

    Chroma subsampling                       : 4:2:0

    Bit depth                                : 8 bits

    Scan type                                : Progressive

    Bits/(Pixel*Frame)                       : 0.040

    Stream size                              : 1.69 GiB (94%)

    Title                                    : MoviesMB

    Writing library                          : x264 core 157 r2935 545de2f

    Language                                 : Hindi

    Default                                  : Yes

    Forced                                   : No

    Color range                              : Limited

    Color primaries                          : Generic film

    Transfer characteristics                 : BT.709

    Matrix coefficients                      : BT.709

    Audio

    ID                                       : 2

    Format                                   : AAC

    Format/Info                              : Advanced Audio Codec

    Format profile                           : LC

    Codec ID                                 : A_AAC-2

    Duration                                 : 2 h 32 min

    Bit rate                                 : 96.0 kb/s

    Channel(s)                               : 2 channels

    Channel positions                        : Front: L R

    Sampling rate                            : 48.0 kHz

    Frame rate                               : 46.875 FPS (1024 SPF)

    Compression mode                         : Lossy

    Stream size                              : 105 MiB (6%)

    Title                                    : MoviesMB

    Language                                 : Hindi

    Default                                  : Yes

    Forced                                   : No

    image image image image image image image image image


    More at ibit.to
    And ibit.uno
    And ibit.ws

    Reviews

    Comments

    Files

    Buy RDP - RDPArena.com.url 121 B
    Download Latest Movies From MoviesMb.Com.url 111 B
    Downloadhub.icu Free 300MB Movies Download.url 114 B
    MoviesMB.com - Sample-Simmba.2019.1080p.WEBRip.Hindi.AAC.MoviesMB (1).mkv 9.0 MB
    MoviesMB.com - Simmba.2019.1080p.WEBRip.Hindi.AAC.MoviesMB.mkv 1.8 GB
    MoviesMB.com Simmba.2019.1080p.WEBRip.Hindi.AAC.MoviesMB.mkv 1.8 GB
    MoviesMB.com Sample-Simmba.2019.1080p.WEBRip.Hindi.AAC.MoviesMB (1).mkv 9.0 MB
    Buy RDP RDPArena.com.url 121 B

    Stream

    Downloading Seeding Simmba.2019.1080p.WEBRip.Hindi.AAC.MoviesMB from to 0 peers.
    of
    0 b/s / ↗0 b/s