• 1
  • 2
  • done
Download
  • She-Hulk: Attorney at Law
  • 3.6 GB
  • twistedbydesign
  • Hulk Attorney Law
  • Новинки и сериалы в стадии пок

Description

Женщина-Халк: Адвокат | She-Hulk: Attorney at Law


image

Год выпуска : 2022

Страна : США

Жанр : Фантастика, боевик, драма, комедия, приключения

Продолжительность : ~ 00:35:00


Перевод : Профессиональный (многоголосый закадровый) |

LostFilm


Режиссёр : Кэт Койро, Ану Валиа


В ролях : Татьяна Маслани, Марк Руффало, Джинджер Гонзага, Джамила Джамил, Тим Рот, Бенедикт Вонг, Чарли Кокс, Джош Сегарра, Гриффин Мэтьюз, Стив Култер, Дрю Мэтьюз, Брэндон Хирш


Описание : После переливания крови двоюродная сестра Брюса Бэннера юристка Дженнифер Уолтерс получает способность во время стресса перевоплощаться в сверхсильное существо. Дженнифер предстоит научиться управлять этим даром и применять его во благо при этом продолжать работать в недавно созданном Отделе по правам сверхлюдей.


Сэмпл : http://multi-up.com/1296950


Качество : WEB-DL 720p

Контейнер : MKV

Видео : AVC, 1280x720, 24,000 кадра/сек, ~ 3100 Кбит/сек

Аудио Rus : AC3, 48,0 kHz, 2 ch, 384 Кбит/сек

Аудио Eng : E-AC3 JOC, 48 kHz, 6ch, 768 Кбит/сек

Субтитры : Русские (Forced |HDrezka Studio|, Full |Где тексты Лебовски?), Английские (SDH)

Реклама : Отсутствует



MediaInfo

`Общее
Уникальный идентификатор : 227561629948231124447690569395561252609 (0xAB32C6964FFF3A9BB36D7D5E9F4B4701)
Полное имя : C:UsersunderOneDriveРабочий столShe-Hulk Attorney at LawShe.Hulk.Attorney.at.Law.S01E01.A.Normal.Amount.of.Rage.mkv
Формат : Matroska
Версия формата : Version 4
Размер файла : 1,05 Гбайт
Продолжительность : 35 м. 22 с.
Режим общего битрейта : Переменный
Общий поток : 4 262 Кбит/сек
Название фильма : She-Hulk: Attorney at Law 01x01 - Release by Wentworth_Miller
Дата кодирования : UTC 2022-08-27 19:08:31
Программа кодирования : mkvmerge v47.0.0 ('Black Flag') 64-bit
Библиотека кодирования : libebml v1.3.10 + libmatroska v1.5.2

Видео
Идентификатор : 1
Формат : AVC
Формат/Информация : Advanced Video Codec
Профиль формата : [email protected]
Настройки формата : CABAC / 4 Ref Frames
Параметр CABAC формата : Да
Параметр RefFrames формата : 4 кадра
Идентификатор кодека : V_MPEG4/ISO/AVC
Продолжительность : 35 м. 22 с.
Вид битрейта : Переменный
Битрейт : 3 107 Кбит/сек
Максимальный битрейт : 6 375 Кбит/сек
Ширина : 1 280 пикселей
Высота : 720 пикселей
Соотношение сторон : 16:9
Режим частоты кадров : Постоянный
Частота кадров : 24,000 кадра/сек
Цветовое пространство : YUV
Субдискретизация насыщенности : 4:2:0
Битовая глубина : 8 бит
Тип развёртки : Прогрессивная
Бит/(Пиксели*Кадры) : 0.140
Размер потока : 786 Мбайт (73%)
Default : Да
Forced : Нет
Цветовой диапазон : Limited
Основные цвета : BT.709
Характеристики трансфера : BT.709
Коэффициенты матрицы : BT.709

Аудио #1
Идентификатор : 2
Формат : AC-3
Формат/Информация : Audio Coding 3
Коммерческое название : Dolby Digital
Идентификатор кодека : A_AC3
Продолжительность : 35 м. 21 с.
Вид битрейта : Постоянный
Битрейт : 384 Кбит/сек
Каналы : 2 канала
Channel layout : L R
Частота : 48,0 КГц
Частота кадров : 31,250 кадров/сек (1536 SPF)
Метод сжатия : С потерями
Размер потока : 97,1 Мбайт (9%)
Заголовок : LostFilm
Язык : Russian
Service kind : Complete Main
Default : Да
Forced : Нет

Аудио #2
Идентификатор : 3
Формат : E-AC-3 JOC
Формат/Информация : Enhanced AC-3 with Joint Object Coding
Коммерческое название : Dolby Digital Plus with Dolby Atmos
Идентификатор кодека : A_EAC3
Продолжительность : 35 м. 22 с.
Вид битрейта : Постоянный
Битрейт : 768 Кбит/сек
Каналы : 6 каналов
Channel layout : L R C LFE Ls Rs
Частота : 48,0 КГц
Частота кадров : 31,250 кадров/сек (1536 SPF)
Метод сжатия : С потерями
Размер потока : 194 Мбайт (18%)
Язык : English
Service kind : Complete Main
Default : Нет
Forced : Нет
Complexity index : 16
Number of dynamic objects : 15
Bed channel count : 1 канал
Bed channel configuration : LFE

Текст #1
Идентификатор : 4
Формат : UTF-8
Идентификатор кодека : S_TEXT/UTF8
Идентификатор кодека/Информация : UTF-8 Plain Text
Продолжительность : 28 м. 39 с.
Битрейт : 0 бит/сек
Count of elements : 5
Размер потока : 180 байт (0%)
Заголовок : Forced
Язык : Russian
Default : Да
Forced : Нет

Текст #2
Идентификатор : 5
Формат : UTF-8
Идентификатор кодека : S_TEXT/UTF8
Идентификатор кодека/Информация : UTF-8 Plain Text
Продолжительность : 32 м. 21 с.
Битрейт : 129 бит/сек
Count of elements : 510
Размер потока : 30,7 Кбайт (0%)
Заголовок : Где тексты, Лебовски
Язык : Russian
Default : Нет
Forced : Нет

Текст #3
Идентификатор : 6
Формат : UTF-8
Идентификатор кодека : S_TEXT/UTF8
Идентификатор кодека/Информация : UTF-8 Plain Text
Продолжительность : 32 м. 4 с.
Битрейт : 90 бит/сек
Count of elements : 660
Размер потока : 21,2 Кбайт (0%)
Заголовок : SDH
Язык : English
Default : Нет
Forced : Нет

`


Скриншоты

image image image image image


Внимание! Раздача ведётся путём добавления новых серий

Внимание! Раздача ведётся путём добавления новых серий; при каждом добавлении создаётся новый торрент. Чтобы начать докачку новой серии, пользователям необходимо сделать следующее:

(1)

остановить скачивание,

(2)

удалить старый торрент у себя из клиента (старые серии удалять не надо),

(3)

скачать новый торрент и запустить его у себя в клиенте вместо старого, при этом указать клиенту путь в старую папку куда и должно происходить скачивание новых серий.

Ваш клиент при этом должен произвести хеширование (проверку) старой папки (если не производит сам - помогите ему сделать это), и будет докачивать только те серии которых у вас ещё нет. Старые серии при этом не удаляются, а продолжают раздаваться!

Eсли вы уже удалили старые серии, то предотвратить повторную закачку старых серий можно, отжав галочку в соответствующих местах при запуске нового торрента. По возможности, желательно не удалять старые серии как можно дольше чтобы релизёр не столько продолжал раздавать старые серии, а смог сконцентрироваться на новых.


Предыдущие и альтернативные раздачи


More at ibit.to
And ibit.uno
And ibit.am
And ibit.ws

Comments

3 weeks ago

Почему не релизится локализованный дубляж Flarrow Films? Опять одно закадровое говно

3 weeks ago

TwistedByDesign Приведите в порядок название файлов: скрытый текст Поставьте везде либо точку, либо тире. Создайте тфайл заново.

3 weeks ago

kogesan писал(а): 83572117TwistedByDesign Приведите в порядок название файлов: скрытый текст Поставьте везде либо точку, либо тире. Создайте тфайл заново. Исправлено, спасибо.03.

2 weeks ago

04.

2 weeks ago

Скачал третью серию вместо четвертой, потому что кто-то не может нормально поименовать файлы.

1 week ago

TwistedByDesign Переименуйте 4 серию пожалуйста

Files

Stream

Downloading Seeding She-Hulk: Attorney at Law from to 0 peers.
of
0 b/s / ↗0 b/s