• 13
  • 38
  • done
Anonymous Downloadondemand_video
  • See (2019) S01E04 The River (1080p ATVP Webrip x265 10bit AC3 5.1 - Goki).mkv
  • 1.8 GB
  • goki
  • 2019 S01E04 River 1080p ATVP Webrip x265 10bit AC3 Goki mkv
  • English
  • HEVC/x265
Warning! Use a VPN When Downloading Torrents!
Your IP Address is ,
Your Internet Provider can see when you download torrents! Hide your IP ADDRESS with a VPN
We strongly recommend hide.me VPN to hide your torrenting. It's FREE!
DOWNLOAD VPN
73%

See: The River(2019)

  • 1 4
  • Sci-Fi & Fantasy Drama
  • An attack on the village leads to sacrifice and new challenges.

    expand_more
    English
    • 1
    • 2
    • 3
    • 4
    • 5
    • 6

    Description

    image

    image

    See (2019) IMDB

    image

    image

    image

    image

    Media Information

    Unique ID                                : 168285064948690407210269605028262681133 (0x7E9A864ABAC7C71F23546A8595A99A2D)

    Complete name                            : See (2019) S01E04 The River (1080p ATVP Webrip x265 10bit AC3 5.1 - Goki).mkv

    Format                                   : Matroska

    Format version                           : Version 4

    File size                                : 1.83 GiB

    Duration                                 : 53 min 36 s

    Overall bit rate                         : 4 885 kb/s

    Movie name                               : See (2019) S01E04 The River (1080p ATVP Webrip x265 10bit AC3 5.1 - Goki).mkv

    Encoded date                             : UTC 2019-11-08 18:42:20

    Writing application                      : mkvmerge v28.2.0 ('The Awakening') 64-bit

    Writing library                          : libebml v1.3.6 + libmatroska v1.4.9

    Video

    ID                                       : 1

    Format                                   : HEVC

    Format/Info                              : High Efficiency Video Coding

    Format profile                           : Main [email protected]@Main

    Codec ID                                 : V_MPEGH/ISO/HEVC

    Duration                                 : 53 min 36 s

    Bit rate                                 : 4 495 kb/s

    Width                                    : 1 920 pixels

    Height                                   : 910 pixels

    Display aspect ratio                     : 2.110

    Frame rate mode                          : Constant

    Frame rate                               : 23.976 (24000/1001) FPS

    Color space                              : YUV

    Chroma subsampling                       : 4:2:0

    Bit depth                                : 10 bits

    Bits/(Pixel*Frame)                       : 0.107

    Stream size                              : 1.68 GiB (92%)

    Writing library                          : x265 2.9+8-27d8424c799d:[Windows][MSVC 1915][64 bit] 10bit

    Encoding settings                        : cpuid=1111039 / frame-threads=2 / numa-pools=6 / wpp / no-pmode / no-pme / no-psnr / no-ssim / log-level=2 / input-csp=1 / input-res=1920x910 / interlace=0 / total-frames=0 / level-idc=0 / high-tier=1 / uhd-bd=0 / ref=4 / no-allow-non-conformance / no-repeat-headers / annexb / no-aud / no-hrd / info / hash=0 / no-temporal-layers / open-gop / min-keyint=23 / keyint=250 / gop-lookahead=0 / bframes=8 / b-adapt=2 / b-pyramid / bframe-bias=0 / rc-lookahead=100 / lookahead-slices=4 / scenecut=40 / radl=0 / no-intra-refresh / ctu=64 / min-cu-size=8 / no-rect / no-amp / max-tu-size=32 / tu-inter-depth=1 / tu-intra-depth=1 / limit-tu=0 / rdoq-level=2 / dynamic-rd=0.00 / no-ssim-rd / signhide / no-tskip / nr-intra=0 / nr-inter=0 / no-constrained-intra / no-strong-intra-smoothing / max-merge=3 / limit-refs=3 / limit-modes / me=3 / subme=5 / merange=57 / temporal-mvp / weightp / no-weightb / no-analyze-src-pics / deblock=0:0 / sao / no-sao-non-deblock / rd=4 / no-early-skip / rskip / no-fast-intra / no-tskip-fast / no-cu-lossless / no-b-intra / no-splitrd-skip / rdpenalty=0 / psy-rd=1.30 / psy-rdoq=2.00 / no-rd-refine / no-lossless / cbqpoffs=0 / crqpoffs=0 / rc=crf / crf=20.0 / qcomp=0.60 / qpstep=4 / stats-write=0 / stats-read=0 / ipratio=1.40 / pbratio=1.30 / aq-mode=2 / aq-strength=1.10 / cutree / zone-count=0 / no-strict-cbr / qg-size=32 / no-rc-grain / qpmax=69 / qpmin=0 / no-const-vbv / sar=1 / overscan=0 / videoformat=5 / range=0 / colorprim=2 / transfer=2 / colormatrix=2 / chromaloc=0 / display-window=0 / max-cll=0,0 / min-luma=0 / max-luma=1023 / log2-max-poc-lsb=8 / vui-timing-info / vui-hrd-info / slices=1 / no-opt-qp-pps / no-opt-ref-list-length-pps / no-multi-pass-opt-rps / scenecut-bias=0.05 / no-opt-cu-delta-qp / no-aq-motion / no-hdr / no-hdr-opt / no-dhdr10-opt / no-idr-recovery-sei / analysis-reuse-level=5 / scale-factor=0 / refine-intra=0 / refine-inter=0 / refine-mv=0 / no-limit-sao / ctu-info=0 / no-lowpass-dct / refine-mv-type=0 / copy-pic=1 / max-ausize-factor=1.0 / no-dynamic-refine / no-single-sei

    Language                                 : English

    Default                                  : Yes

    Forced                                   : No

    Audio

    ID                                       : 2

    Format                                   : AC-3

    Format/Info                              : Audio Coding 3

    Commercial name                          : Dolby Digital

    Codec ID                                 : A_AC3

    Duration                                 : 53 min 36 s

    Bit rate mode                            : Constant

    Bit rate                                 : 384 kb/s

    Channel(s)                               : 6 channels

    Channel layout                           : L R C LFE Ls Rs

    Sampling rate                            : 48.0 kHz

    Frame rate                               : 31.250 FPS (1536 SPF)

    Compression mode                         : Lossy

    Stream size                              : 147 MiB (8%)

    Language                                 : English

    Service kind                             : Complete Main

    Default                                  : Yes

    Forced                                   : No

    Text #1

    ID                                       : 3

    Format                                   : UTF-8

    Codec ID                                 : S_TEXT/UTF8

    Codec ID/Info                            : UTF-8 Plain Text

    Duration                                 : 7 min 36 s

    Bit rate                                 : 1 b/s

    Count of elements                        : 3

    Stream size                              : 61.0 Bytes (0%)

    Title                                    : English (Forced)

    Language                                 : English

    Default                                  : Yes

    Forced                                   : Yes

    Text #2

    ID                                       : 4

    Format                                   : UTF-8

    Codec ID                                 : S_TEXT/UTF8

    Codec ID/Info                            : UTF-8 Plain Text

    Duration                                 : 51 min 56 s

    Bit rate                                 : 40 b/s

    Count of elements                        : 489

    Stream size                              : 15.4 KiB (0%)

    Language                                 : English

    Default                                  : No

    Forced                                   : No

    Text #3

    ID                                       : 5

    Format                                   : UTF-8

    Codec ID                                 : S_TEXT/UTF8

    Codec ID/Info                            : UTF-8 Plain Text

    Duration                                 : 51 min 56 s

    Bit rate                                 : 46 b/s

    Count of elements                        : 587

    Stream size                              : 17.7 KiB (0%)

    Title                                    : English (SDH)

    Language                                 : English

    Default                                  : No

    Forced                                   : No

    Text #4

    ID                                       : 6

    Format                                   : UTF-8

    Codec ID                                 : S_TEXT/UTF8

    Codec ID/Info                            : UTF-8 Plain Text

    Duration                                 : 53 min 26 s

    Bit rate                                 : 52 b/s

    Count of elements                        : 493

    Stream size                              : 20.5 KiB (0%)

    Language                                 : Arabic

    Default                                  : No

    Forced                                   : No

    Text #5

    ID                                       : 7

    Format                                   : UTF-8

    Codec ID                                 : S_TEXT/UTF8

    Codec ID/Info                            : UTF-8 Plain Text

    Duration                                 : 53 min 26 s

    Bit rate                                 : 57 b/s

    Count of elements                        : 475

    Stream size                              : 22.7 KiB (0%)

    Language                                 : Bulgarian

    Default                                  : No

    Forced                                   : No

    Text #6

    ID                                       : 8

    Format                                   : UTF-8

    Codec ID                                 : S_TEXT/UTF8

    Codec ID/Info                            : UTF-8 Plain Text

    Duration                                 : 53 min 26 s

    Bit rate                                 : 40 b/s

    Count of elements                        : 494

    Stream size                              : 15.7 KiB (0%)

    Title                                    : Cantonese (Traditional)

    Language                                 : Chinese

    Default                                  : No

    Forced                                   : No

    Text #7

    ID                                       : 9

    Format                                   : UTF-8

    Codec ID                                 : S_TEXT/UTF8

    Codec ID/Info                            : UTF-8 Plain Text

    Duration                                 : 53 min 26 s

    Bit rate                                 : 37 b/s

    Count of elements                        : 493

    Stream size                              : 14.5 KiB (0%)

    Title                                    : Chinese (Simplified)

    Language                                 : Chinese

    Default                                  : No

    Forced                                   : No

    Text #8

    ID                                       : 10

    Format                                   : UTF-8

    Codec ID                                 : S_TEXT/UTF8

    Codec ID/Info                            : UTF-8 Plain Text

    Duration                                 : 53 min 26 s

    Bit rate                                 : 35 b/s

    Count of elements                        : 494

    Stream size                              : 14.0 KiB (0%)

    Title                                    : Chinese (Traditional)

    Language                                 : Chinese

    Default                                  : No

    Forced                                   : No

    Text #9

    ID                                       : 11

    Format                                   : UTF-8

    Codec ID                                 : S_TEXT/UTF8

    Codec ID/Info                            : UTF-8 Plain Text

    Duration                                 : 53 min 26 s

    Bit rate                                 : 37 b/s

    Count of elements                        : 492

    Stream size                              : 14.8 KiB (0%)

    Language                                 : Czech

    Default                                  : No

    Forced                                   : No

    Text #10

    ID                                       : 12

    Format                                   : UTF-8

    Codec ID                                 : S_TEXT/UTF8

    Codec ID/Info                            : UTF-8 Plain Text

    Duration                                 : 53 min 26 s

    Bit rate                                 : 40 b/s

    Count of elements                        : 493

    Stream size                              : 15.9 KiB (0%)

    Language                                 : Danish

    Default                                  : No

    Forced                                   : No

    Text #11

    ID                                       : 13

    Format                                   : UTF-8

    Codec ID                                 : S_TEXT/UTF8

    Codec ID/Info                            : UTF-8 Plain Text

    Duration                                 : 53 min 26 s

    Bit rate                                 : 39 b/s

    Count of elements                        : 487

    Stream size                              : 15.6 KiB (0%)

    Language                                 : Dutch

    Default                                  : No

    Forced                                   : No

    Text #12

    ID                                       : 14

    Format                                   : UTF-8

    Codec ID                                 : S_TEXT/UTF8

    Codec ID/Info                            : UTF-8 Plain Text

    Duration                                 : 53 min 26 s

    Bit rate                                 : 36 b/s

    Count of elements                        : 493

    Stream size                              : 14.4 KiB (0%)

    Language                                 : Estonian

    Default                                  : No

    Forced                                   : No

    Text #13

    ID                                       : 15

    Format                                   : UTF-8

    Codec ID                                 : S_TEXT/UTF8

    Codec ID/Info                            : UTF-8 Plain Text

    Duration                                 : 53 min 26 s

    Bit rate                                 : 34 b/s

    Count of elements                        : 491

    Stream size                              : 13.6 KiB (0%)

    Language                                 : Finnish

    Default                                  : No

    Forced                                   : No

    Text #14

    ID                                       : 16

    Format                                   : UTF-8

    Codec ID                                 : S_TEXT/UTF8

    Codec ID/Info                            : UTF-8 Plain Text

    Duration                                 : 52 min 34 s

    Bit rate                                 : 40 b/s

    Count of elements                        : 515

    Stream size                              : 15.6 KiB (0%)

    Title                                    : French (Canada)

    Language                                 : French

    Default                                  : No

    Forced                                   : No

    Text #15

    ID                                       : 17

    Format                                   : UTF-8

    Codec ID                                 : S_TEXT/UTF8

    Codec ID/Info                            : UTF-8 Plain Text

    Duration                                 : 52 min 34 s

    Bit rate                                 : 40 b/s

    Count of elements                        : 514

    Stream size                              : 15.6 KiB (0%)

    Title                                    : French (France)

    Language                                 : French

    Default                                  : No

    Forced                                   : No

    Text #16

    ID                                       : 18

    Format                                   : UTF-8

    Codec ID                                 : S_TEXT/UTF8

    Codec ID/Info                            : UTF-8 Plain Text

    Duration                                 : 53 min 28 s

    Bit rate                                 : 43 b/s

    Count of elements                        : 490

    Stream size                              : 16.9 KiB (0%)

    Language                                 : German

    Default                                  : No

    Forced                                   : No

    Text #17

    ID                                       : 19

    Format                                   : UTF-8

    Codec ID                                 : S_TEXT/UTF8

    Codec ID/Info                            : UTF-8 Plain Text

    Duration                                 : 53 min 26 s

    Bit rate                                 : 71 b/s

    Count of elements                        : 490

    Stream size                              : 28.2 KiB (0%)

    Language                                 : Greek

    Default                                  : No

    Forced                                   : No

    Text #18

    ID                                       : 20

    Format                                   : UTF-8

    Codec ID                                 : S_TEXT/UTF8

    Codec ID/Info                            : UTF-8 Plain Text

    Duration                                 : 53 min 26 s

    Bit rate                                 : 54 b/s

    Count of elements                        : 493

    Stream size                              : 21.2 KiB (0%)

    Language                                 : Hebrew

    Default                                  : No

    Forced                                   : No

    Text #19

    ID                                       : 21

    Format                                   : UTF-8

    Codec ID                                 : S_TEXT/UTF8

    Codec ID/Info                            : UTF-8 Plain Text

    Duration                                 : 53 min 26 s

    Bit rate                                 : 104 b/s

    Count of elements                        : 494

    Stream size                              : 40.8 KiB (0%)

    Language                                 : Hindi

    Default                                  : No

    Forced                                   : No

    Text #20

    ID                                       : 22

    Format                                   : UTF-8

    Codec ID                                 : S_TEXT/UTF8

    Codec ID/Info                            : UTF-8 Plain Text

    Duration                                 : 53 min 26 s

    Bit rate                                 : 39 b/s

    Count of elements                        : 491

    Stream size                              : 15.4 KiB (0%)

    Language                                 : Hungarian

    Default                                  : No

    Forced                                   : No

    Text #21

    ID                                       : 23

    Format                                   : UTF-8

    Codec ID                                 : S_TEXT/UTF8

    Codec ID/Info                            : UTF-8 Plain Text

    Duration                                 : 53 min 26 s

    Bit rate                                 : 40 b/s

    Count of elements                        : 493

    Stream size                              : 15.7 KiB (0%)

    Language                                 : Indonesian

    Default                                  : No

    Forced                                   : No

    Text #22

    ID                                       : 24

    Format                                   : UTF-8

    Codec ID                                 : S_TEXT/UTF8

    Codec ID/Info                            : UTF-8 Plain Text

    Duration                                 : 53 min 28 s

    Bit rate                                 : 41 b/s

    Count of elements                        : 497

    Stream size                              : 16.2 KiB (0%)

    Language                                 : Italian

    Default                                  : No

    Forced                                   : No

    Text #23

    ID                                       : 25

    Format                                   : UTF-8

    Codec ID                                 : S_TEXT/UTF8

    Codec ID/Info                            : UTF-8 Plain Text

    Duration                                 : 53 min 33 s

    Bit rate                                 : 34 b/s

    Count of elements                        : 497

    Stream size                              : 13.6 KiB (0%)

    Language                                 : Japanese

    Default                                  : No

    Forced                                   : No

    Text #24

    ID                                       : 26

    Format                                   : UTF-8

    Codec ID                                 : S_TEXT/UTF8

    Codec ID/Info                            : UTF-8 Plain Text

    Duration                                 : 53 min 26 s

    Bit rate                                 : 40 b/s

    Count of elements                        : 493

    Stream size                              : 15.7 KiB (0%)

    Language                                 : Latvian

    Default                                  : No

    Forced                                   : No

    Text #25

    ID                                       : 27

    Format                                   : UTF-8

    Codec ID                                 : S_TEXT/UTF8

    Codec ID/Info                            : UTF-8 Plain Text

    Duration                                 : 53 min 26 s

    Bit rate                                 : 37 b/s

    Count of elements                        : 493

    Stream size                              : 14.7 KiB (0%)

    Language                                 : Lithuanian

    Default                                  : No

    Forced                                   : No

    Text #26

    ID                                       : 28

    Format                                   : UTF-8

    Codec ID                                 : S_TEXT/UTF8

    Codec ID/Info                            : UTF-8 Plain Text

    Duration                                 : 53 min 26 s

    Bit rate                                 : 42 b/s

    Count of elements                        : 491

    Stream size                              : 16.8 KiB (0%)

    Language                                 : Malay

    Default                                  : No

    Forced                                   : No

    Text #27

    ID                                       : 29

    Format                                   : UTF-8

    Codec ID                                 : S_TEXT/UTF8

    Codec ID/Info                            : UTF-8 Plain Text

    Duration                                 : 53 min 26 s

    Bit rate                                 : 39 b/s

    Count of elements                        : 493

    Stream size                              : 15.6 KiB (0%)

    Language                                 : Norwegian

    Default                                  : No

    Forced                                   : No

    Text #28

    ID                                       : 30

    Format                                   : UTF-8

    Codec ID                                 : S_TEXT/UTF8

    Codec ID/Info                            : UTF-8 Plain Text

    Duration                                 : 53 min 26 s

    Bit rate                                 : 36 b/s

    Count of elements                        : 493

    Stream size                              : 14.4 KiB (0%)

    Language                                 : Polish

    Default                                  : No

    Forced                                   : No

    Text #29

    ID                                       : 31

    Format                                   : UTF-8

    Codec ID                                 : S_TEXT/UTF8

    Codec ID/Info                            : UTF-8 Plain Text

    Duration                                 : 53 min 26 s

    Bit rate                                 : 41 b/s

    Count of elements                        : 493

    Stream size                              : 16.3 KiB (0%)

    Language                                 : Portuguese

    Default                                  : No

    Forced                                   : No

    Text #30

    ID                                       : 32

    Format                                   : UTF-8

    Codec ID                                 : S_TEXT/UTF8

    Codec ID/Info                            : UTF-8 Plain Text

    Duration                                 : 53 min 26 s

    Bit rate                                 : 37 b/s

    Count of elements                        : 493

    Stream size                              : 14.6 KiB (0%)

    Title                                    : Portuguese (Brazil)

    Language                                 : Portuguese

    Default                                  : No

    Forced                                   : No

    Text #31

    ID                                       : 33

    Format                                   : UTF-8

    Codec ID                                 : S_TEXT/UTF8

    Codec ID/Info                            : UTF-8 Plain Text

    Duration                                 : 53 min 26 s

    Bit rate                                 : 64 b/s

    Count of elements                        : 494

    Stream size                              : 25.1 KiB (0%)

    Language                                 : Russian

    Default                                  : No

    Forced                                   : No

    Text #32

    ID                                       : 34

    Format                                   : UTF-8

    Codec ID                                 : S_TEXT/UTF8

    Codec ID/Info                            : UTF-8 Plain Text

    Duration                                 : 53 min 26 s

    Bit rate                                 : 35 b/s

    Count of elements                        : 493

    Stream size                              : 13.7 KiB (0%)

    Language                                 : Slovak

    Default                                  : No

    Forced                                   : No

    Text #33

    ID                                       : 35

    Format                                   : UTF-8

    Codec ID                                 : S_TEXT/UTF8

    Codec ID/Info                            : UTF-8 Plain Text

    Duration                                 : 53 min 26 s

    Bit rate                                 : 34 b/s

    Count of elements                        : 493

    Stream size                              : 13.4 KiB (0%)

    Language                                 : Slovenian

    Default                                  : No

    Forced                                   : No

    Text #34

    ID                                       : 36

    Format                                   : UTF-8

    Codec ID                                 : S_TEXT/UTF8

    Codec ID/Info                            : UTF-8 Plain Text

    Duration                                 : 53 min 28 s

    Bit rate                                 : 37 b/s

    Count of elements                        : 485

    Stream size                              : 14.8 KiB (0%)

    Language                                 : Spanish

    Default                                  : No

    Forced                                   : No

    Text #35

    ID                                       : 37

    Format                                   : UTF-8

    Codec ID                                 : S_TEXT/UTF8

    Codec ID/Info                            : UTF-8 Plain Text

    Duration                                 : 53 min 28 s

    Bit rate                                 : 39 b/s

    Count of elements                        : 494

    Stream size                              : 15.6 KiB (0%)

    Title                                    : Spanish (Latin America)

    Language                                 : Spanish

    Default                                  : No

    Forced                                   : No

    Text #36

    ID                                       : 38

    Format                                   : UTF-8

    Codec ID                                 : S_TEXT/UTF8

    Codec ID/Info                            : UTF-8 Plain Text

    Duration                                 : 53 min 26 s

    Bit rate                                 : 40 b/s

    Count of elements                        : 493

    Stream size                              : 15.7 KiB (0%)

    Language                                 : Swedish

    Default                                  : No

    Forced                                   : No

    Text #37

    ID                                       : 39

    Format                                   : UTF-8

    Codec ID                                 : S_TEXT/UTF8

    Codec ID/Info                            : UTF-8 Plain Text

    Duration                                 : 53 min 26 s

    Bit rate                                 : 124 b/s

    Count of elements                        : 493

    Stream size                              : 48.8 KiB (0%)

    Language                                 : Tamil

    Default                                  : No

    Forced                                   : No

    Text #38

    ID                                       : 40

    Format                                   : UTF-8

    Codec ID                                 : S_TEXT/UTF8

    Codec ID/Info                            : UTF-8 Plain Text

    Duration                                 : 53 min 26 s

    Bit rate                                 : 117 b/s

    Count of elements                        : 493

    Stream size                              : 45.8 KiB (0%)

    Language                                 : Telugu

    Default                                  : No

    Forced                                   : No

    Text #39

    ID                                       : 41

    Format                                   : UTF-8

    Codec ID                                 : S_TEXT/UTF8

    Codec ID/Info                            : UTF-8 Plain Text

    Duration                                 : 53 min 26 s

    Bit rate                                 : 99 b/s

    Count of elements                        : 493

    Stream size                              : 39.1 KiB (0%)

    Language                                 : Thai

    Default                                  : No

    Forced                                   : No

    Text #40

    ID                                       : 42

    Format                                   : UTF-8

    Codec ID                                 : S_TEXT/UTF8

    Codec ID/Info                            : UTF-8 Plain Text

    Duration                                 : 53 min 26 s

    Bit rate                                 : 58 b/s

    Count of elements                        : 494

    Stream size                              : 22.9 KiB (0%)

    Language                                 : Ukrainian

    Default                                  : No

    Forced                                   : No

    Text #41

    ID                                       : 43

    Format                                   : UTF-8

    Codec ID                                 : S_TEXT/UTF8

    Codec ID/Info                            : UTF-8 Plain Text

    Duration                                 : 53 min 26 s

    Bit rate                                 : 52 b/s

    Count of elements                        : 494

    Stream size                              : 20.4 KiB (0%)

    Language                                 : Vietnamese

    Default                                  : No

    Forced                                   : No

    Menu

    00:00:00.000                             : :Chapter 01

    00:00:52.544                             : :Chapter 02

    Source

    1080p ATVP WEB-DL CasStudio

    101021881286744149484721718379355468755 (0x4C001B4B80FC44E8CE4B71CD318A73D3)

    .........................................................................................................................................


    More at ibit.to
    And ibit.uno
    And ibit.ws

    Reviews

    Comments

    Files

    See (2019) S01E04 The River (1080p ATVP Webrip x265 10bit AC3 5.1 - Goki).mkv 1.8 GB

    Stream

    Downloading Seeding See (2019) S01E04 The River (1080p ATVP Webrip x265 10bit AC3 5.1 - Goki).mkv from to 0 peers.
    of
    0 b/s / ↗0 b/s