• 5
  • 0
  • done
Sponsored Downloadondemand_video
  • Secondhand.Lions.2003.720p.BluRay.H264.AAC-RARBG
  • 1.3 GB
  • Secondhand Lions 2003 720p BluRay H264 RARBG
  • English
  • x264/720
71%

Secondhand Lions (2003)

  • Comedy Drama Family
  • "Secondhand Lions" follows the comedic adventures of an introverted boy left on the doorstep of a pair of reluctant, eccentric great-uncles, whose exotic remembrances stir the boy's spirit and re-ignite the men's lives.

    expand_more
    English

    Description

    A boy named Walter is dropped by his mother Mae at his great-uncles' house. Later|Walter will find out his great-uncles' big secret. And rumors say that Hub & Garth|Walter's great uncles| have stolen much gold & money. (some say they stole it from Al Capone) Did they really steal that money or not?

    http://imdb.com/title/tt0327137/

    image

    image

    image

    image

    image

    MediaInfo:

    Video

    ID                                       : 1

    Format                                   : AVC

    Format/Info                              : Advanced Video Codec

    Format profile                           : High@L4.1

    Format settings, CABAC                   : Yes

    Format settings, RefFrames               : 4 frames

    Codec ID                                 : avc1

    Codec ID/Info                            : Advanced Video Coding

    Duration                                 : 1 h 49 min

    Bit rate                                 : 1 500 kb/s

    Width                                    : 1 280 pixels

    Height                                   : 688 pixels

    Display aspect ratio                     : 1.85:1

    Frame rate mode                          : Constant

    Frame rate                               : 23.976 (23976/1000) FPS

    Color space                              : YUV

    Chroma subsampling                       : 4:2:0

    Bit depth                                : 8 bits

    Scan type                                : Progressive

    Bits/(Pixel*Frame)                       : 0.071

    Stream size                              : 1.14 GiB (87%)

    Writing library                          : x264 core 152 r2851M ba24899

    Encoding settings                        : cabac=1 / ref=4 / deblock=1:-1:-1 / analyse=0x3:0x113 / me=umh / subme=9 / psy=1 / psyrd=1.00:0.15 / mixedref=1 / merange=24 / chromame=1 / trellis=2 / 8x8dct=1 / cqm=0 / deadzone=21,11 / fastpskip=1 / chromaqpoffset=-3 / threads=32 / lookaheadthreads=4 / slicedthreads=0 / nr=0 / decimate=1 / interlaced=0 / bluraycompat=0 / constrainedintra=0 / bframes=3 / bpyramid=2 / badapt=2 / bbias=0 / direct=3 / weightb=1 / opengop=0 / weightp=2 / keyint=250 / keyintmin=25 / scenecut=40 / intrarefresh=0 / rclookahead=50 / rc=2pass / mbtree=1 / bitrate=1500 / ratetol=1.0 / qcomp=0.60 / qpmin=0 / qpmax=69 / qpstep=4 / cplxblur=20.0 / qblur=0.5 / vbvmaxrate=31250 / vbvbufsize=31250 / nalhrd=none / filler=0 / ipratio=1.40 / aq=3:1.00

    Encoded date                             : UTC 2017-09-21 03:48:01

    Tagged date                              : UTC 2017-09-21 03:48:01

    Audio

    ID                                       : 2

    Format                                   : AAC

    Format/Info                              : Advanced Audio Codec

    Format profile                           : LC

    Codec ID                                 : 40

    Duration                                 : 1 h 49 min

    Duration_LastFrame                       : -11 ms

    Bit rate mode                            : Constant

    Bit rate                                 : 224 kb/s

    Channel(s)                               : 2 channels

    Channel(s)_Original                      : 6 channels

    Channel positions                        : Front: L C R, Side: L R, LFE

    Sampling rate                            : 48.0 kHz

    Frame rate                               : 46.875 FPS (1024 SPF)

    Compression mode                         : Lossy

    Stream size                              : 175 MiB (13%)

    Default                                  : Yes

    Alternate group                          : 1

    Encoded date                             : UTC 2017-09-21 03:48:01

    Tagged date                              : UTC 2017-09-21 03:48:01


    More at ibit.to
    And ibit.uno
    And ibit.ws

    Reviews

    Comments

    Files

    RARBG.txt 30 B
    Secondhand.Lions.2003.720p.BluRay.H264.AAC-RARBG.mp4 1.3 GB
    Subs/2_Eng.srt 86 kB

    Stream

    Downloading Seeding Secondhand.Lions.2003.720p.BluRay.H264.AAC-RARBG from to 0 peers.
    of
    0 b/s / ↗0 b/s