• 2
  • 4
Sponsored Downloadondemand_video
  • Second.Act.2018.720p.NF.WEB-DL.800MB ESub[MOVCR]
  • 800 MB
  • Tamilgun
  • Second Act 2018 720p WEB 800MB ESub MOVCR
  • English
  • HD 720p
61%

Second Act (2018)

  • Romance Comedy Drama
  • Maya, a 40-year-old woman struggling with frustrations from unfulfilled dreams. Until that is, she gets the chance to prove to Madison Avenue that street smarts are as valuable as book smarts, and that it is never too late for a second act.

    expand_more
    English
  • $16,000,000
  • Description

    image

    Video

    ID                          : 1

    Format                      : AVC

    Format/Info                 : Advanced Video Codec

    Format profile              : [email protected]

    Format settings             : CABAC / 4 Ref Frames

    Format settings, CABAC      : Yes

    Format settings, ReFrames   : 4 frames

    Codec ID                    : V_MPEG4/ISO/AVC

    Duration                    : 1 h 43 min

    Bit rate                    : 1 010 kb/s

    Width                       : 1 280 pixels

    Height                      : 544 pixels

    Display aspect ratio        : 2.35:1

    Frame rate mode             : Constant

    Frame rate                  : 24.000 FPS

    Color space                 : YUV

    Chroma subsampling          : 4:2:0

    Bit depth                   : 8 bits

    Audio

    ID                          : 2

    Format                      : AAC

    Format/Info                 : Advanced Audio Codec

    Format profile              : LC

    Codec ID                    : A_AAC-2

    Duration                    : 1 h 43 min

    Bit rate                    : 64.1 kb/s

    Channel(s)                  : 2 channels

    Channel positions           : Front: L R

    Sampling rate               : 48.0 kHz

    Frame rate                  : 46.875 FPS (1024 SPF)

    Compression mode            : Lossy

    Stream size                 : 47.6 MiB (6%)

    Language                    : English

    Text #1

    ID                          : 3

    Format                      : UTF-8

    Codec ID                    : S_TEXT/UTF8

    Codec ID/Info               : UTF-8 Plain Text

    Duration                    : 1 min 29 s

    Bit rate                    : 37 b/s

    Count of elements           : 14

    Stream size                 : 426 Bytes (0%)

    Default                     : Yes

    Forced                      : No

    Text #2

    ID                          : 4

    Format                      : UTF-8

    Codec ID                    : S_TEXT/UTF8

    Codec ID/Info               : UTF-8 Plain Text

    Duration                    : 1 h 43 min

    Bit rate                    : 90 b/s

    Count of elements           : 2107

    Stream size                 : 68.4 KiB (0%)

    Default                     : No

    Forced                      : No

    image image image image image image image


    More at ibit.to
    And ibit.uno
    And ibit.ws

    Reviews

    Comments

    Files

    (www.Movcr.cc). -Second.Act.2018.720p.NF.WEB-DL.800MB ESub[MOVCR].mkv 800 MB

    Stream

    Downloading Seeding Second.Act.2018.720p.NF.WEB-DL.800MB ESub[MOVCR] from to 0 peers.
    of
    0 b/s / ↗0 b/s