• 0
  • 0
Sponsored Downloadondemand_video
  • Second Act 2018 1080p NF WEB-DL DD 5.1 x264 [MW]
  • 1.7 GB
  • MovieFreak
  • Second Act 2018 1080p WEB x264
  • English
  • HD 1080p
61%

Second Act (2018)

  • Romance Comedy Drama
  • Maya, a 40-year-old woman struggling with frustrations from unfulfilled dreams. Until that is, she gets the chance to prove to Madison Avenue that street smarts are as valuable as book smarts, and that it is never too late for a second act.

    expand_more
    English
  • $16,000,000
  • Description

    image

    **General

    Format                                   : Matroska

    Format version                           : Version 4

    File size                                : 1.71 GiB

    Duration                                 : 1 h 43 min

    Overall bit rate                         : 2 360 kb/s

    Video

    ID                                       : 1

    Format                                   : AVC

    Format/Info                              : Advanced Video Codec

    Format profile                           : [email protected]

    Format settings                          : CABAC / 4 Ref Frames

    Format settings, CABAC                   : Yes

    Format settings, RefFrames               : 4 frames

    Codec ID                                 : V_MPEG4/ISO/AVC

    Duration                                 : 1 h 43 min

    Bit rate                                 : 2 000 kb/s

    Width                                    : 1 920 pixels

    Height                                   : 808 pixels

    Display aspect ratio                     : 2.40:1

    Frame rate mode                          : Constant

    Frame rate                               : 24.000 FPS

    Color space                              : YUV

    Chroma subsampling                       : 4:2:0

    Bit depth                                : 8 bits

    Scan type                                : Progressive

    Bits/(Pixel*Frame)                       : 0.054

    Stream size                              : 1.43 GiB (84%)

    Writing library                          : x264 core 157 r2935 545de2f

    Audio

    ID                                       : 2

    Format                                   : AC-3

    Format/Info                              : Audio Coding 3

    Commercial name                          : Dolby Digital

    Codec ID                                 : A_AC3

    Duration                                 : 1 h 43 min

    Bit rate mode                            : Constant

    Bit rate                                 : 384 kb/s

    Channel(s)                               : 6 channels

    Channel layout                           : L R C LFE Ls Rs

    Sampling rate                            : 48.0 kHz

    Frame rate                               : 31.250 FPS (1536 SPF)

    Bit depth                                : 16 bits

    Compression mode                         : Lossy

    Stream size                              : 285 MiB (16%)

    Language                                 : English

    Service kind                             : Complete Main

    Default                                  : Yes

    Forced                                   : No

    Text #1

    ID                                       : 3

    Format                                   : UTF-8

    Codec ID                                 : S_TEXT/UTF8

    Codec ID/Info                            : UTF-8 Plain Text

    Duration                                 : 1 min 25 s

    Bit rate                                 : 37 b/s

    Count of elements                        : 13

    Stream size                              : 396 Bytes (0%)

    Title                                    : Forced

    Language                                 : English

    Default                                  : Yes

    Forced                                   : Yes

    Text #2

    ID                                       : 4

    Format                                   : UTF-8

    Codec ID                                 : S_TEXT/UTF8

    Codec ID/Info                            : UTF-8 Plain Text

    Duration                                 : 1 h 43 min

    Bit rate                                 : 90 b/s

    Count of elements                        : 2084

    Stream size                              : 68.3 KiB (0%)

    Title                                    : SDH

    Language                                 : English

    Default                                  : No

    Forced                                   : No**

    Click To View Image

    https://pichub.site/image/k9Gtp

    https://pichub.site/image/k9N2y

    https://pichub.site/image/k9Ueb

    https://pichub.site/image/k90xV

    https://pichub.site/image/k9xk0

    https://pichub.site/image/k9LHT


    More at ibit.to
    And ibit.uno
    And ibit.ws

    Reviews

    Comments

    Files

    Second Act 2018 1080p NF WEB-DL DD 5.1 x264 [MW].mkv 1.7 GB
    Second Act 2018 1080p NF WEBDL DD 5.1 x264 [MW] -
    Second Act 2018 1080p NF WEBDL DD 5.1 x264 [MW].mkv 1.7 GB

    Stream

    Downloading Seeding Second Act 2018 1080p NF WEB-DL DD 5.1 x264 [MW] from to 0 peers.
    of
    0 b/s / ↗0 b/s