• 0
  • 0
  • done
Anonymous Download
  • Rymden - Reflections And Odysseys [2019]
  • 277 MB
  • _garri
  • Rymden Reflections Odysseys 2019
  • Зарубежный джаз
Warning! Use a VPN When Downloading Torrents!
Your IP Address is ,
Your Internet Provider can see when you download torrents! Hide your IP ADDRESS with a VPN
We strongly recommend Trust.Zone VPN to hide your torrenting. It's FREE!
DOWNLOAD VPN

Description

Rymden - Reflections and Odysseys


image

Жанр : Contemporary Jazz

Носитель : CD

Год издания : 2019

Издатель (лейбл) : Jazzland Recordings

Номер по каталогу : 377 920 6

Аудиокодек : FLAC (*.flac)

Тип рипа : tracks+.cue

Продолжительность : 00:47:45

Источник : www

Наличие сканов в содержимом раздачи : нет



Bugge Wesseltoft : Piano & Rhodes
Magnus Öström: Drums & Percussion
Dan Berglund: Bass



01 . Rymden-Reflections

(01:10)

02 . Rymden-The Odyssey

(06:03)

03 . The Peacemaker

(00:37)

04 . Pitter-Patter

(05:14)

05 . The Lugubrious Youth Of Lucky Luke

(06:55)

06 . The Celestial Dog And The Funeral Ship

(08:06)

07 . Bergen

(06:24)

08 . Råk-The Abyss

(02:00)

09 . Råk

(06:24)

10 . Orbiting

(00:56)

11 . Homegrown

(03:51)



Лог создания рипа

`X Lossless Decoder version 20160920 (149.2)

XLD extraction logfile from 2019-05-20 17:58:32 +0200

Rymden / Reflections And Odysseys

Used drive : HL-DT-ST DVDRW GX40N (revision RQ00)
Media type : Pressed CD

Ripper mode : XLD Secure Ripper
Disable audio cache : OK for the drive with a cache less than 1375KiB
Make use of C2 pointers : NO
Read offset correction : 6
Max retry count : 20
Gap status : Analyzed, Appended (except HTOA)

TOC of the extracted CD
Track | Start | Length | Start sector | End sector


1 | 00:00:00 | 01:10:08 | 0 | 5257
2 | 01:10:08 | 06:03:31 | 5258 | 32513
3 | 07:13:39 | 00:37:63 | 32514 | 35351
4 | 07:51:27 | 05:14:61 | 35352 | 58962
5 | 13:06:13 | 06:55:14 | 58963 | 90101
6 | 20:01:27 | 08:06:08 | 90102 | 126559
7 | 28:07:35 | 06:24:07 | 126560 | 155366
8 | 34:31:42 | 02:00:52 | 155367 | 164418
9 | 36:32:19 | 06:24:42 | 164419 | 193260
10 | 42:56:61 | 00:56:48 | 193261 | 197508
11 | 43:53:34 | 03:51:70 | 197509 | 214903

AccurateRip Summary (DiscID: 00137161-00ad9baa-9c0b310b)
Track 01 : OK (v2, confidence 17/17)
Track 02 : OK (v2, confidence 17/17)
Track 03 : OK (v2, confidence 17/17)
Track 04 : OK (v2, confidence 17/17)
Track 05 : OK (v2, confidence 17/17)
Track 06 : OK (v2, confidence 17/17)
Track 07 : OK (v2, confidence 17/17)
Track 08 : OK (v2, confidence 17/17)
Track 09 : OK (v2, confidence 17/17)
Track 10 : OK (v2, confidence 17/17)
Track 11 : OK (v2, confidence 17/17)
->All tracks accurately ripped.

All Tracks
Album gain : -6.38 dB
Peak : 1.000000
Statistics
Read error : 0
Jitter error (maybe fixed) : 1
Retry sector count : 29
Damaged sector count : 0

Track 01
Filename : /rips/Rymden - Reflections And Odysseys (2019) [FLAC]/01 Rymden-Reflections.flac
Pre-gap length : 00:02:00

Track gain : 6.30 dB
Peak : 0.446014
CRC32 hash (test run) : E2A83ACF
CRC32 hash : E2A83ACF
CRC32 hash (skip zero) : C0874A01
AccurateRip v1 signature : F4E74387
AccurateRip v2 signature : 3B14B31F
->Accurately ripped (v2, confidence 17/17)
Statistics
Read error : 0
Jitter error (maybe fixed) : 0
Retry sector count : 0
Damaged sector count : 0

Track 02
Filename : /rips/Rymden - Reflections And Odysseys (2019) [FLAC]/02 Rymden-The Odyssey.flac

Track gain : -5.36 dB
Peak : 0.978729
CRC32 hash (test run) : E5DAC94C
CRC32 hash : E5DAC94C
CRC32 hash (skip zero) : F8DA5851
AccurateRip v1 signature : C53F3356
AccurateRip v2 signature : 2787EF7C
->Accurately ripped (v2, confidence 17/17)
Statistics
Read error : 0
Jitter error (maybe fixed) : 0
Retry sector count : 0
Damaged sector count : 0

Track 03
Filename : /rips/Rymden - Reflections And Odysseys (2019) [FLAC]/03 The Peacemaker.flac

Track gain : 6.51 dB
Peak : 0.455902
CRC32 hash (test run) : 7823A98D
CRC32 hash : 7823A98D
CRC32 hash (skip zero) : C9A94088
AccurateRip v1 signature : FCF92C42
AccurateRip v2 signature : 1438D76C
->Accurately ripped (v2, confidence 17/17)
Statistics
Read error : 0
Jitter error (maybe fixed) : 0
Retry sector count : 0
Damaged sector count : 0

Track 04
Filename : /rips/Rymden - Reflections And Odysseys (2019) [FLAC]/04 Pitter-Patter.flac

Track gain : -6.36 dB
Peak : 1.000000
CRC32 hash (test run) : 39007B5B
CRC32 hash : 39007B5B
CRC32 hash (skip zero) : B5C287D9
AccurateRip v1 signature : A6464B29
AccurateRip v2 signature : 857DDA98
->Accurately ripped (v2, confidence 17/17)
Statistics
Read error : 0
Jitter error (maybe fixed) : 0
Retry sector count : 0
Damaged sector count : 0

Track 05
Filename : /rips/Rymden - Reflections And Odysseys (2019) [FLAC]/05 The Lugubrious Youth Of Lucky Luke.flac

Track gain : -5.15 dB
Peak : 0.956726
CRC32 hash (test run) : 361885B1
CRC32 hash : 361885B1
CRC32 hash (skip zero) : DCCF589D
AccurateRip v1 signature : E02B9F8A
AccurateRip v2 signature : BE21FC89
->Accurately ripped (v2, confidence 17/17)
Statistics
Read error : 0
Jitter error (maybe fixed) : 0
Retry sector count : 0
Damaged sector count : 0

Track 06
Filename : /rips/Rymden - Reflections And Odysseys (2019) [FLAC]/06 The Celestial Dog And The Funeral Ship.flac

Track gain : -5.26 dB
Peak : 1.000000
CRC32 hash (test run) : C92A646F
CRC32 hash : C92A646F
CRC32 hash (skip zero) : AC0554FA
AccurateRip v1 signature : 05BD9882
AccurateRip v2 signature : 0C3389F9
->Accurately ripped (v2, confidence 17/17)
Statistics
Read error : 0
Jitter error (maybe fixed) : 1
Retry sector count : 20
Damaged sector count : 0

Track 07
Filename : /rips/Rymden - Reflections And Odysseys (2019) [FLAC]/07 Bergen.flac

Track gain : -7.50 dB
Peak : 1.000000
CRC32 hash (test run) : B65F06FF
CRC32 hash : B65F06FF
CRC32 hash (skip zero) : 04234AF8
AccurateRip v1 signature : C4DD6EFB
AccurateRip v2 signature : 000C0126
->Accurately ripped (v2, confidence 17/17)
Statistics
Read error : 0
Jitter error (maybe fixed) : 0
Retry sector count : 0
Damaged sector count : 0

Track 08
Filename : /rips/Rymden - Reflections And Odysseys (2019) [FLAC]/08 RГҐk-The Abyss.flac

Track gain : -2.30 dB
Peak : 0.955627
CRC32 hash (test run) : FEFF8258
CRC32 hash : FEFF8258
CRC32 hash (skip zero) : 9F4B0FBF
AccurateRip v1 signature : 0AACAD20
AccurateRip v2 signature : 190E5F37
->Accurately ripped (v2, confidence 17/17)
Statistics
Read error : 0
Jitter error (maybe fixed) : 0
Retry sector count : 0
Damaged sector count : 0

Track 09
Filename : /rips/Rymden - Reflections And Odysseys (2019) [FLAC]/09 RГҐk.flac

Track gain : -7.39 dB
Peak : 0.985596
CRC32 hash (test run) : 89AD34B9
CRC32 hash : 89AD34B9
CRC32 hash (skip zero) : 001EE361
AccurateRip v1 signature : 0942EC17
AccurateRip v2 signature : 5880687C
->Accurately ripped (v2, confidence 17/17)
Statistics
Read error : 0
Jitter error (maybe fixed) : 0
Retry sector count : 0
Damaged sector count : 0

Track 10
Filename : /rips/Rymden - Reflections And Odysseys (2019) [FLAC]/10 Orbiting.flac

Track gain : -2.25 dB
Peak : 0.955109
CRC32 hash (test run) : 176EA632
CRC32 hash : 176EA632
CRC32 hash (skip zero) : B69E382E
AccurateRip v1 signature : BFE7D0AD
AccurateRip v2 signature : C5E7C138
->Accurately ripped (v2, confidence 17/17)
Statistics
Read error : 0
Jitter error (maybe fixed) : 0
Retry sector count : 9
Damaged sector count : 0

Track 11
Filename : /rips/Rymden - Reflections And Odysseys (2019) [FLAC]/11 Homegrown.flac

Track gain : -5.41 dB
Peak : 0.957184
CRC32 hash (test run) : D04643BF
CRC32 hash : D04643BF
CRC32 hash (skip zero) : 93787FE9
AccurateRip v1 signature : A7832562
AccurateRip v2 signature : BF1AE7BA
->Accurately ripped (v2, confidence 17/17)
Statistics
Read error : 0
Jitter error (maybe fixed) : 0
Retry sector count : 0
Damaged sector count : 0

No errors occurred

End of status report

-----BEGIN XLD SIGNATURE-----
Rb16zCkXR37k4W9PuCeNkNpXFQIdXFDhe5Udb2ewt2st_pSK2qbpnXTwS3lfRlq292I8BWsQ78UXbNg6UVer1MYQD9qZ2q080mRRi
-----END XLD SIGNATURE----- `

Содержание индексной карты (.CUE)

TITLE "Reflections And Odysseys" PERFORMER "Rymden" REM GENRE "Jazz" REM DATE "2019" REM DISCID 9C0B310B REM REPLAYGAIN_ALBUM_GAIN -6.38 dB REM REPLAYGAIN_ALBUM_PEAK 1.000000 FILE "01 Rymden-Reflections.flac" WAVE TRACK 01 AUDIO TITLE "Rymden-Reflections" ISRC NOWAJ1821010 REM REPLAYGAIN_TRACK_GAIN 6.30 dB REM REPLAYGAIN_TRACK_PEAK 0.446014 INDEX 01 00:00:00 FILE "02 Rymden-The Odyssey.flac" WAVE TRACK 02 AUDIO TITLE "Rymden-The Odyssey" ISRC NOWAJ1821020 REM REPLAYGAIN_TRACK_GAIN -5.36 dB REM REPLAYGAIN_TRACK_PEAK 0.978729 INDEX 01 00:00:00 FILE "03 The Peacemaker.flac" WAVE TRACK 03 AUDIO TITLE "The Peacemaker" ISRC NOWAJ1821030 REM REPLAYGAIN_TRACK_GAIN 6.51 dB REM REPLAYGAIN_TRACK_PEAK 0.455902 INDEX 01 00:00:00 FILE "04 Pitter-Patter.flac" WAVE TRACK 04 AUDIO TITLE "Pitter-Patter" ISRC NOWAJ1821040 REM REPLAYGAIN_TRACK_GAIN -6.36 dB REM REPLAYGAIN_TRACK_PEAK 1.000000 INDEX 01 00:00:00 FILE "05 The Lugubrious Youth Of Lucky Luke.flac" WAVE TRACK 05 AUDIO TITLE "The Lugubrious Youth Of Lucky Luke" ISRC NOWAJ1821050 REM REPLAYGAIN_TRACK_GAIN -5.15 dB REM REPLAYGAIN_TRACK_PEAK 0.956726 INDEX 01 00:00:00 FILE "06 The Celestial Dog And The Funeral Ship.flac" WAVE TRACK 06 AUDIO TITLE "The Celestial Dog And The Funeral Ship" ISRC NOWAJ1821060 REM REPLAYGAIN_TRACK_GAIN -5.26 dB REM REPLAYGAIN_TRACK_PEAK 1.000000 INDEX 01 00:00:00 FILE "07 Bergen.flac" WAVE TRACK 07 AUDIO TITLE "Bergen" ISRC NOWAJ1821070 REM REPLAYGAIN_TRACK_GAIN -7.50 dB REM REPLAYGAIN_TRACK_PEAK 1.000000 INDEX 01 00:00:00 FILE "08 Rak-The Abyss.flac" WAVE TRACK 08 AUDIO TITLE "Rak-The Abyss" ISRC NOWAJ1821080 REM REPLAYGAIN_TRACK_GAIN -2.30 dB REM REPLAYGAIN_TRACK_PEAK 0.955627 INDEX 01 00:00:00 FILE "09 Rak.flac" WAVE TRACK 09 AUDIO TITLE "Rak" ISRC NOWAJ1821090 REM REPLAYGAIN_TRACK_GAIN -7.39 dB REM REPLAYGAIN_TRACK_PEAK 0.985596 INDEX 01 00:00:00 FILE "10 Orbiting.flac" WAVE TRACK 10 AUDIO TITLE "Orbiting" ISRC NOWAJ1821100 REM REPLAYGAIN_TRACK_GAIN -2.25 dB REM REPLAYGAIN_TRACK_PEAK 0.955109 INDEX 01 00:00:00 FILE "11 Homegrown.flac" WAVE TRACK 11 AUDIO TITLE "Homegrown" ISRC NOWAJ1821110 REM REPLAYGAIN_TRACK_GAIN -5.41 dB REM REPLAYGAIN_TRACK_PEAK 0.957184 INDEX 01 00:00:00


More at ibit.to
And ibit.uno
And ibit.ws

Comments

Files

Rymden - Reflections And Odysseys [2019]01 Rymden-Reflections.flac 4.4 MB
Rymden - Reflections And Odysseys [2019]02 Rymden-The Odyssey.flac 42 MB
Rymden - Reflections And Odysseys [2019]03 The Peacemaker.flac 1.7 MB
Rymden - Reflections And Odysseys [2019]04 Pitter-Patter.flac 36 MB
Rymden - Reflections And Odysseys [2019]05 The Lugubrious Youth Of Lucky Luke.flac 26 MB
Rymden - Reflections And Odysseys [2019]06 The Celestial Dog And The Funeral Ship.flac 43 MB
Rymden - Reflections And Odysseys [2019]07 Bergen.flac 44 MB
Rymden - Reflections And Odysseys [2019]08 Rak-The Abyss.flac 11 MB
Rymden - Reflections And Odysseys [2019]09 Rak.flac 44 MB
Rymden - Reflections And Odysseys [2019]10 Orbiting.flac 4.9 MB
Rymden - Reflections And Odysseys [2019]11 Homegrown.flac 19 MB
Rymden - Reflections And Odysseys [2019]cover.jpg 170 kB
Rymden - Reflections And Odysseys [2019]edit..cue 2.5 kB
Rymden - Reflections And Odysseys [2019]Reflections And Odysseys.cue 2.4 kB
Rymden - Reflections And Odysseys [2019]Reflections And Odysseys.log 9.5 kB

Stream

Downloading Seeding Rymden - Reflections And Odysseys [2019] from to 0 peers.
of
0 b/s / ↗0 b/s