• 1
  • 0
  • 3
Sponsored Downloadondemand_video
  • Rob the Mob 2014 BRRip XviD MP3-RARBG
  • 1.0 GB
  • 2014 BRRip XviD RARBG Rob Mob MP3
  • XVID
63%

Rob the Mob (2014)

  • Crime Drama
  • The true-life story of a crazy-in-love Queens couple who robbed a series of mafia social clubs and got away with it… for a while… until they stumble upon a score bigger than they ever planned and become targets of both the mob and the FBI.

    expand_more
    English

    Description

    A Queens couple who specialize in robbing mafia social clubs stumble upon a score bigger than they could ever imagine| becoming targets of both the mob and the FBIin the process.

    http://imdb.com/title/tt2481480/

    Rob.the.Mob.2014.BRRip.XviD.MP3-RARBG

    http://www.imdb.com/title/tt2481480/

    image

    image

    image

    Screens:

    image

    image

    image

    image

    Info:

    Format                                   : AVI

    Format/Info                              : Audio Video Interleave

    File size                                : 1.02 GiB

    Duration                                 : 1h 44mn

    Overall bit rate                         : 1 402 Kbps

    Movie name                               : RARBG.COM - Rob.the.Mob.2014.BRRip.XviD.MP3-RARBG

    Writing library                          : VirtualDub build 35491/release

    Comment                                  : RARBG.COM - Rob.the.Mob.2014.BRRip.XviD.MP3-RARBG

    Video

    ID                                       : 0

    Format                                   : MPEG-4 Visual

    Format profile                           : Simple@L5

    Format settings, BVOP                    : No

    Format settings, QPel                    : No

    Format settings, GMC                     : No warppoints

    Format settings, Matrix                  : Default (H.263)

    Codec ID                                 : XVID

    Codec ID/Hint                            : XviD

    Duration                                 : 1h 44mn

    Bit rate                                 : 1 197 Kbps

    Width                                    : 720 pixels

    Height                                   : 400 pixels

    Display aspect ratio                     : 16:9

    Frame rate                               : 23.976 fps

    Color space                              : YUV

    Chroma subsampling                       : 4:2:0

    Bit depth                                : 8 bits

    Scan type                                : Progressive

    Compression mode                         : Lossy

    Bits/(Pixel*Frame)                       : 0.173

    Stream size                              : 892 MiB (85%)

    Writing library                          : Lavc55.61.100

    Audio

    ID                                       : 1

    Format                                   : MPEG Audio

    Format version                           : Version 1

    Format profile                           : Layer 3

    Mode                                     : Joint stereo

    Mode extension                           : MS Stereo

    Codec ID                                 : 55

    Codec ID/Hint                            : MP3

    Duration                                 : 1h 44mn

    Bit rate mode                            : Constant

    Bit rate                                 : 192 Kbps

    Channel(s)                               : 2 channels

    Sampling rate                            : 48.0 KHz

    Compression mode                         : Lossy

    Stream size                              : 143 MiB (14%)

    Alignment                                : Aligned on interleaves

    Interleave, duration                     : 24 ms (0.58 video frame)

    Interleave, preload duration             : 504 ms

    Writing library                          : LAME

    **Notes:

    Greetz to everyone image**


    More at ibit.to
    And ibit.uno
    And ibit.ws

    Reviews

    Comments

    5 years ago

    trailer looks good

    Files

    Rob.the.Mob.2014.BRRip.XviD.MP3-RARBG.avi 1.0 GB
    RARBG.com.avi 1.1 MB
    Rob.the.Mob.2014.BRRip.XviD.MP3-RARBG.nfo 3.1 kB
    RARBG.com.txt 30 B
    Rob.the.Mob.2014.BRRip.XviD.MP3-RARBG/Rob.the.Mob.2014.BRRip.XviD.MP3RARBG -
    Rob.the.Mob.2014.BRRip.XviD.MP3-RARBG/Rob.the.Mob.2014.BRRip.XviD.MP3RARBG.avi 1.0 GB
    Rob.the.Mob.2014.BRRip.XviD.MP3-RARBG/RARBG.com.avi 1.1 MB
    Rob.the.Mob.2014.BRRip.XviD.MP3-RARBG/Rob.the.Mob.2014.BRRip.XviD.MP3RARBG.nfo 3.1 kB
    Rob.the.Mob.2014.BRRip.XviD.MP3-RARBG/RARBG.com.txt 34 B

    Stream

    Downloading Seeding Rob the Mob 2014 BRRip XviD MP3-RARBG from to 0 peers.
    of
    0 b/s / ↗0 b/s