• 0
  • 0
  • done
Anonymous Download
  • Roadkill [BMIRussian]
  • 8.3 GB
  • Mr.Leon911
  • Roadkill BMIRussian
  • Фильмы и передач
Warning! Use a VPN When Downloading Torrents!
Your IP Address is ,
Your Internet Provider can see when you download torrents! Hide your IP ADDRESS with a VPN
We strongly recommend Trust.Zone VPN to hide your torrenting. It's FREE!
DOWNLOAD VPN

Description

Роадкилл / Roadkill

image

Страна : Америка

Жанр : Путешествие, тюнинг

Дата выпуска : 2012

Перевод : Студийный (одноголосый закадровый) BMIRussian

Описание : Roadkill является автомобильным приключением шоу с участием Дэвида Фрайбургера и Майка Финнегана из Hot Rod.

MediaInfo

Общее
Уникальный идентификатор : 187303437516115583886675006874916829467 (0x8CE9547451CC3BAB983BC678ADD5391B)
Полное имя : E:Roadkill [BMIRussian]Roadkill 01 El Paso To LA The Hard Way [BMIRussian].mkv
Формат : Matroska
Версия формата : Version 2
Размер файла : 312 Мбайт
Продолжительность : 20 м.
Общий поток : 2104 Кбит/сек
Дата кодирования : UTC 2014-08-30 19:56:11
Программа кодирования : mkvmerge v4.2.0 ('No Talking') сборка от Jul 28 2010 18:38:23
Библиотека кодирования : libebml v1.0.0 + libmatroska v1.0.0

Видео
Идентификатор : 1
Формат : AVC
Формат/Информация : Advanced Video Codec
Профиль формата : [email protected]
Параметр CABAC формата : Да
Параметр ReFrames формата : 1 кадр
Режим смешивания : Header stripping
Идентификатор кодека : V_MPEG4/ISO/AVC
Продолжительность : 20 м.
Битрейт : 1870 Кбит/сек
Ширина : 1280 пикселей
Высота : 720 пикселей
Соотношение сторон : 16:9
Режим частоты кадров : Постоянный
Частота кадров : 23,976 кадра/сек
Цветовое пространство : YUV
Субдискретизация насыщенности : 4:2:0
Битовая глубина : 8 бит
Тип развёртки : Прогрессивная
Бит/(Пиксели*Кадры) : 0.085
Размер потока : 277 Мбайт (89%)
Default : Да
Forced : Нет

Аудио
Идентификатор : 2
Формат : MPEG Audio
Версия формата : Version 1
Профиль формата : Layer 3
Режим : Joint stereo
Расширение режима : MS Stereo
Режим смешивания : Header stripping
Идентификатор кодека : A_MPEG/L3
Идентификатор кодека/Подсказка : MP3
Продолжительность : 20 м.
Вид битрейта : Постоянный
Битрейт : 192 Кбит/сек
Каналы : 2 канала
Частота : 48,0 КГц
Метод сжатия : С потерями
Размер потока : 28,5 Мбайт (9%)
Default : Да
Forced : Нет

Список серий

Roadkill 01 El Paso To LA The Hard Way
Roadkill 02 Viva Ranchero! Alaska or Bust
Roadkill 03 Cheap Truck Challenge
Roadkill 04 Extreme Elco Engine Swap
Roadkill 05 Rat Rod vs Lamborghini Aventador
Roadkill 06 Thrash Battle - Van vs Wagon
Roadkill 07 Release The Draguar! Building a Blown Jaguar Rat Rod
Roadkill 08 426 Hemi in a '55 Chevy
Roadkill 09 Surviving HOT ROD Drag Week
Roadkill 10 727 Cubic Inches and Australian Tire Smoke
Roadkill 11 Junkyard 'Cuda Rescue, With Nitrous Oxide
Roadkill 12 Chevy vs. Ford Cop-Car Thrash Battle
Roadkill 13 The Ranchero Returns! Alaska or Bust The Sequel Part 1
Roadkill 14 The Ranchero Returns Part 2! Alaska or Bust, the Sequel Part 2
Roadkill 15 Rat Rod Jeep Death-Wish Trip

Скриншоты

image image image image image

30.01.2016 Обновлено. Добавлены следующие выпуски:
Roadkill 15 Rat Rod Jeep Death-Wish Trip


More at ibit.to
And ibit.uno
And ibit.ws

Comments

Files

Roadkill 01 El Paso To LA The Hard Way [BMIRussian].mkv 327 MB
Roadkill 02 Viva Ranchero! Alaska or Bust [BMIRussian].mkv 282 MB
Roadkill 03 Cheap Truck Challenge [BMIRussian].mkv 394 MB
Roadkill 04 Extreme Elco Engine Swap [BMIRussian].mkv 318 MB
Roadkill 05 Rat Rod vs Lamborghini Aventador [BMIRussian].mkv 578 MB
Roadkill 06 Thrash Battle - Van vs Wagon [BMIRussian].mkv 566 MB
Roadkill 07 Release The Draguar! Building a Blown Jaguar Rat Rod [BMIRussian].mkv 626 MB
Roadkill 08 426 Hemi in a '55 Chevy [BMIRussian].mkv 624 MB
Roadkill 09 Surviving HOT ROD Drag Week [BMIRussian].mkv 675 MB
Roadkill 10 727 Cubic Inches and Australian Tire Smoke [BMIRussian].mkv 704 MB
Roadkill 11 Junkyard 'Cuda Rescue, With Nitrous Oxide [BMIRussian].mkv 845 MB
Roadkill 12 Chevy vs. Ford Cop-Car Thrash Battle [BMIRussian].mkv 626 MB
Roadkill 13 The Ranchero Returns! Alaska or Bust The Sequel Part 1 [BMIRussian].mkv 549 MB
Roadkill 14 The Ranchero Returns Part 2! Alaska or Bust, the Sequel Part 2 [BMIRussian].mkv 590 MB
Roadkill 15 Rat Rod Jeep Death-Wish Trip [BMIRussian].mkv 611 MB

Stream

Downloading Seeding Roadkill [BMIRussian] from to 0 peers.
of
0 b/s / ↗0 b/s