• 0
  • 0
Sponsored Downloadondemand_video
  • Road.To.Nowhere.2010.BRRip.XviD.MP3-RARBG
  • 1.4 GB
  • Road 2010 BRRip XviD RARBG
  • XVID
54%

Road to Nowhere (2011)

  • Mystery Thriller
  • A passionate filmmaker creating a film based upon a true crime casts an unknown mysterious young woman bearing a disturbing resemblance to the femme fatale in the story. Unsuspectingly, he finds himself drawn into a complex web of haunting intrigue: he becomes obsessed with the woman, the crime, her possibly notorious past, and the disturbing complexity between art and truth. From the Smoky Mountains of North Carolina to Verona, Rome, and London, new truths are revealed and clues to other crimes and passions, darker and even more complex, are uncovered.

    English
  • $5,000,000
  • Description

    There's a murky tenuous balance between reality and fiction; particularly when it involves a beautiful young woman| murder| a powerful politico| a missing fortuneand suicide. A passionate filmmaker creating a film based upon a true crime casts an unknown mysterious young woman bearing a disturbing resemblance to the femmefatale in the story. Unsuspectingly| he finds himself drawn into a complex web of haunting intrigue| obsessed with the woman| the crime| her possibly notorious pastand the disturbing complexity between art and truth. From the Smoky Mountains of North Carolina to Verona| Rome and London| new truths are revealed and clues toother crimes and passions| darker and even more complex are uncovered.

    http://imdb.com/title/tt1504319/

    image

    image

    image

    image

    image

    MediaInfo:

    Video

    ID                                       : 0

    Format                                   : MPEG-4 Visual

    Format profile                           : Simple@L5

    Format settings, BVOP                    : No

    Format settings, QPel                    : No

    Format settings, GMC                     : No warppoints

    Format settings, Matrix                  : Default (H.263)

    Codec ID                                 : XVID

    Codec ID/Hint                            : XviD

    Duration                                 : 2 h 1 min

    Bit rate                                 : 1 485 kb/s

    Width                                    : 720 pixels

    Height                                   : 400 pixels

    Display aspect ratio                     : 16:9

    Frame rate                               : 23.976 FPS

    Color space                              : YUV

    Chroma subsampling                       : 4:2:0

    Bit depth                                : 8 bits

    Scan type                                : Progressive

    Compression mode                         : Lossy

    Bits/(Pixel*Frame)                       : 0.215

    Stream size                              : 1.26 GiB (87%)

    Title                                    : RARBG - Road.To.Nowhere.2010.BRRip.XviD.MP3-RARBG

    Writing library                          : Lavc57.89.100

    Audio

    ID                                       : 1

    Format                                   : MPEG Audio

    Format version                           : Version 1

    Format profile                           : Layer 3

    Mode                                     : Joint stereo

    Mode extension                           : MS Stereo

    Codec ID                                 : 55

    Codec ID/Hint                            : MP3

    Duration                                 : 2 h 6 min

    Bit rate mode                            : Constant

    Bit rate                                 : 192 kb/s

    Channel(s)                               : 2 channels

    Sampling rate                            : 48.0 kHz

    Compression mode                         : Lossy

    Stream size                              : 174 MiB (12%)

    Alignment                                : Aligned on interleaves

    Interleave, duration                     : 23  ms (0.55 video frame)

    Interleave, preload duration             : 24  ms

    Title                                    : RARBG - Road.To.Nowhere.2010.BRRip.XviD.MP3-RARBG

    Writing library                          : LAME3.99.5


    More at ibit.to
    And ibit.uno
    And ibit.ws

    Reviews

    Comments

    Files

    RARBG.txt 30 B
    Road.To.Nowhere.2010.BRRip.XviD.MP3-RARBG.avi 1.4 GB

    Stream

    Downloading Seeding Road.To.Nowhere.2010.BRRip.XviD.MP3-RARBG from to 0 peers.
    of
    0 b/s / ↗0 b/s