• 0
  • 0
Anonymous Downloadondemand_video
  • Road.To.Nowhere.2010.1080p.BluRay.H264.AAC-RARBG
  • 2.3 GB
  • Road 2010 1080p BluRay H264 RARBG AAC
  • x264/1080
Warning! Use a VPN When Downloading Torrents!
Your IP Address is ,
Your Internet Provider can see when you download torrents! Hide your IP ADDRESS with a VPN
We strongly recommend hide.me VPN to hide your torrenting. It's FREE!
DOWNLOAD VPN
54%

Road to Nowhere (2011)

  • Mystery Thriller
  • A passionate filmmaker creating a film based upon a true crime casts an unknown mysterious young woman bearing a disturbing resemblance to the femme fatale in the story. Unsuspectingly, he finds himself drawn into a complex web of haunting intrigue: he becomes obsessed with the woman, the crime, her possibly notorious past, and the disturbing complexity between art and truth. From the Smoky Mountains of North Carolina to Verona, Rome, and London, new truths are revealed and clues to other crimes and passions, darker and even more complex, are uncovered.

    English
  • $5,000,000
  • Description

    There's a murky tenuous balance between reality and fiction; particularly when it involves a beautiful young woman| murder| a powerful politico| a missing fortuneand suicide. A passionate filmmaker creating a film based upon a true crime casts an unknown mysterious young woman bearing a disturbing resemblance to the femmefatale in the story. Unsuspectingly| he finds himself drawn into a complex web of haunting intrigue| obsessed with the woman| the crime| her possibly notorious pastand the disturbing complexity between art and truth. From the Smoky Mountains of North Carolina to Verona| Rome and London| new truths are revealed and clues toother crimes and passions| darker and even more complex are uncovered.

    http://imdb.com/title/tt1504319/

    image

    image

    image

    image

    image

    MediaInfo:

    Video

    ID                                       : 1

    Format                                   : AVC

    Format/Info                              : Advanced Video Codec

    Format profile                           : [email protected]

    Format settings, CABAC                   : Yes

    Format settings, ReFrames                : 4 frames

    Codec ID                                 : avc1

    Codec ID/Info                            : Advanced Video Coding

    Duration                                 : 2 h 1 min

    Bit rate                                 : 2 500 kb/s

    Width                                    : 1 920 pixels

    Height                                   : 1 080 pixels

    Display aspect ratio                     : 16:9

    Frame rate mode                          : Constant

    Frame rate                               : 23.976 (23976/1000) FPS

    Color space                              : YUV

    Chroma subsampling                       : 4:2:0

    Bit depth                                : 8 bits

    Scan type                                : Progressive

    Bits/(Pixel*Frame)                       : 0.050

    Stream size                              : 2.12 GiB (91%)

    Writing library                          : x264 core 152 r2851M ba24899

    Encoding settings                        : cabac=1 / ref=4 / deblock=1:-1:-1 / analyse=0x3:0x113 / me=umh / subme=9 / psy=1 / psyrd=1.00:0.15 / mixedref=1 / merange=24 / chromame=1 / trellis=2 / 8x8dct=1 / cqm=0 / deadzone=21,11 / fastpskip=1 / chromaqpoffset=-3 / threads=32 / lookaheadthreads=4 / slicedthreads=0 / nr=0 / decimate=1 / interlaced=0 / bluraycompat=0 / constrainedintra=0 / bframes=3 / bpyramid=2 / badapt=2 / bbias=0 / direct=3 / weightb=1 / opengop=0 / weightp=2 / keyint=250 / keyintmin=25 / scenecut=40 / intrarefresh=0 / rclookahead=50 / rc=2pass / mbtree=1 / bitrate=2500 / ratetol=1.0 / qcomp=0.60 / qpmin=0 / qpmax=69 / qpstep=4 / cplxblur=20.0 / qblur=0.5 / vbvmaxrate=31250 / vbvbufsize=31250 / nalhrd=none / filler=0 / ipratio=1.40 / aq=3:1.00

    Encoded date                             : UTC 2017-07-24 07:55:59

    Tagged date                              : UTC 2017-07-24 07:55:59

    Audio

    ID                                       : 2

    Format                                   : AAC

    Format/Info                              : Advanced Audio Codec

    Format profile                           : LC

    Codec ID                                 : 40

    Duration                                 : 2 h 6 min

    Bit rate mode                            : Constant

    Bit rate                                 : 224 kb/s

    Channel(s)                               : 2 channels

    Channel(s)_Original                      : 6 channels

    Channel positions                        : Front: L C R, Side: L R, LFE

    Sampling rate                            : 48.0 kHz

    Frame rate                               : 46.875 FPS (1024 spf)

    Compression mode                         : Lossy

    Stream size                              : 203 MiB (9%)

    Language                                 : English

    Default                                  : Yes

    Alternate group                          : 1

    Encoded date                             : UTC 2017-07-24 07:55:59

    Tagged date                              : UTC 2017-07-24 07:55:59


    More at ibit.to
    And ibit.uno
    And ibit.am
    And ibit.ws

    Reviews

    Comments

    Files

    RARBG.txt 30 B
    Road.To.Nowhere.2010.1080p.BluRay.H264.AAC-RARBG.mp4 2.3 GB
    Road.To.Nowhere.2010.1080p.BluRay.H264.AACRARBG -
    Road.To.Nowhere.2010.1080p.BluRay.H264.AACRARBG.mp4 2.3 GB

    Stream

    Downloading Seeding Road.To.Nowhere.2010.1080p.BluRay.H264.AAC-RARBG from to 0 peers.
    of
    0 b/s / ↗0 b/s