• 0
  • 0
  • done
Download

Description

Ральф Грейси. Продвинутая техника бразильского джиу-джитсу. / Ralph Gracie. Advanced Jiu-Jitsu Techniques

image

Страна : США

Тематика : БЖЖ

Продолжительность : 00:40:09, 00:39:07, 00:46:07

Год выпуска : 2005

Язык : Английский

Перевод : Не требуется

Описание : Три обучающих фильма по БЖЖ от Ральфа Грейси - человека с замечательным и оптимистичным прозвищем "Питбуль". Как ни странно, есть, чему поучиться. Можете меня поправить, но защиты от их хвалёного "треугольника", кроме как здесь, нигде не встречал. Первый фильм - броски, второй - защита от ударов ногами, руками, захватов головы и шеи, третья часть - удушения и защита от них.
Файлы весят мало, качество вполне смотрибельное.

Информация по видеофайлам

General
Complete name : D:ЗакачкаRalph GracieRalph Gracie 1 - Throws And Takedowns.wmv
Format : Windows Media
File size : 93.8 MiB
Duration : 40mn 9s
Overall bit rate mode : Constant
Overall bit rate : 326 Kbps
Maximum Overall bit rate : 331 Kbps
Encoded date : UTC 2003-10-27 12:44:12.108

Video
ID : 2
Format : VC-1
Format profile : [email protected]
Codec ID : WMV3
Codec ID/Info : Windows Media Video 9
Codec ID/Hint : WMV3
Description of the codec : Windows Media Video 9
Duration : 40mn 7s
Bit rate mode : Constant
Bit rate : 250 Kbps
Width : 320 pixels
Height : 240 pixels
Display aspect ratio : 4:3
Frame rate : 29.970 fps
Resolution : 24 bits
Scan type : Progressive
Bits/(Pixel*Frame) : 0.109
Stream size : 71.7 MiB (77%)
Language : English (US)

Audio
ID : 1
Format : WMA
Format version : Version 2
Codec ID : 161
Codec ID/Info : Windows Media Audio
Description of the codec : Windows Media Audio 9 - 64 kbps, 44 kHz, stereo (A/V) 2-pass CBR
Duration : 40mn 9s
Bit rate mode : Constant
Bit rate : 64.0 Kbps
Channel(s) : 2 channels
Sampling rate : 44.1 KHz
Resolution : 16 bits
Stream size : 18.4 MiB (20%)
Language : English (US)
General
Complete name : D:ЗакачкаRalph GracieRalph Gracie 2 - Defense Against Punches, Knees, Head-butts & Headlocks.wmv
Format : Windows Media
File size : 91.5 MiB
Duration : 39mn 7s
Overall bit rate mode : Constant
Overall bit rate : 327 Kbps
Maximum Overall bit rate : 331 Kbps
Encoded date : UTC 2003-10-26 15:45:09.813

Video
ID : 2
Format : VC-1
Format profile : [email protected]
Codec ID : WMV3
Codec ID/Info : Windows Media Video 9
Codec ID/Hint : WMV3
Description of the codec : Windows Media Video 9
Duration : 39mn 4s
Bit rate mode : Constant
Bit rate : 250 Kbps
Width : 320 pixels
Height : 240 pixels
Display aspect ratio : 4:3
Frame rate : 29.970 fps
Resolution : 24 bits
Scan type : Progressive
Bits/(Pixel*Frame) : 0.109
Stream size : 69.9 MiB (76%)
Language : English (US)

Audio
ID : 1
Format : WMA
Format version : Version 2
Codec ID : 161
Codec ID/Info : Windows Media Audio
Description of the codec : Windows Media Audio 9 - 64 kbps, 44 kHz, stereo (A/V) 2-pass CBR
Duration : 39mn 7s
Bit rate mode : Constant
Bit rate : 64.0 Kbps
Channel(s) : 2 channels
Sampling rate : 44.1 KHz
Resolution : 16 bits
Stream size : 17.9 MiB (20%)
Language : English (US)

General
Complete name : D:ЗакачкаRalph GracieRalph Gracie 3 - Chokes & Counters.wmv
Format : Windows Media
File size : 107 MiB
Duration : 46mn 7s
Overall bit rate mode : Constant
Overall bit rate : 325 Kbps
Maximum Overall bit rate : 331 Kbps
Encoded date : UTC 2003-10-28 20:36:16.954

Video
ID : 2
Format : VC-1
Format profile : [email protected]
Codec ID : WMV3
Codec ID/Info : Windows Media Video 9
Codec ID/Hint : WMV3
Description of the codec : Windows Media Video 9
Duration : 46mn 4s
Bit rate mode : Constant
Bit rate : 250 Kbps
Width : 320 pixels
Height : 240 pixels
Display aspect ratio : 4:3
Frame rate : 29.970 fps
Resolution : 24 bits
Scan type : Progressive
Bits/(Pixel*Frame) : 0.109
Stream size : 82.4 MiB (77%)
Language : English (US)

Audio
ID : 1
Format : WMA
Format version : Version 2
Codec ID : 161
Codec ID/Info : Windows Media Audio
Description of the codec : Windows Media Audio 9 - 64 kbps, 44 kHz, stereo (A/V) 2-pass CBR
Duration : 46mn 7s
Bit rate mode : Constant
Bit rate : 64.0 Kbps
Channel(s) : 2 channels
Sampling rate : 44.1 KHz
Resolution : 16 bits
Stream size : 21.1 MiB (20%)
Language : English (US)

Скриншоты

imageimageimage


More at ibit.to
And ibit.uno
And ibit.am
And ibit.ws

Comments

Files

Ralph Gracie 3 - Chokes & Counters.wmv 107 MB
Ralph Gracie 1 - Throws And Takedowns.wmv 94 MB
Ralph Gracie 2 - Defense Against Punches, Knees, Head-butts & Headlocks.wmv 92 MB

Stream

Downloading Seeding Ralph Gracie from to 0 peers.
of
0 b/s / ↗0 b/s