• 0
  • 0
  • done
Sponsored Downloadondemand_video
  • Ralph Breaks the Internet (2018) x 1600 (2160p) 5.1 x265 10bit Phun Psyz.mkv
  • 2.1 GB
  • phunpsyz
  • Ralph Breaks Internet 2018 1600 2160p x265 10bit Phun Psyz mkv
  • English
  • UltraHD/4K
72%

Ralph Breaks the Internet (2018)

  • Family Animation Comedy Fantasy Adventure
  • Video game bad guy Ralph and fellow misfit Vanellope von Schweetz must risk it all by traveling to the World Wide Web in search of a replacement part to save Vanellope's video game, "Sugar Rush." In way over their heads, Ralph and Vanellope rely on the citizens of the internet -- the netizens -- to help navigate their way, including an entrepreneur named Yesss, who is the head algorithm and the heart and soul of trend-making site BuzzzTube.

    expand_more
    English
  • $175,000,000
  • Description

    www.imdb.com/title/tt5848272/

    Six years after the events of "Wreck-It Ralph," Ralph and Vanellope, now friends, discover a wi-fi router in their arcade, leading them into a new adventure.

    Source: FGT 4K HDR Remux

    image

    image

    image

    image

    image

    Format                      : Matroska

    Format version              : Version 4

    File size                   : 2.11 GiB

    Duration                    : 1 h 52 min

    Overall bit rate            : 2 689 kb/s

    Writing application         : HandBrake 1.2.0 2018121700

    Video

    ID                          : 1

    Format                      : HEVC

    Format/Info                 : High Efficiency Video Coding

    Format profile              : Main [email protected]@High

    Codec ID                    : V_MPEGH/ISO/HEVC

    Duration                    : 1 h 52 min

    Bit rate                    : 2 316 kb/s

    Width                       : 3 840 pixels

    Height                      : 1 600 pixels

    Display aspect ratio        : 2.40:1

    Frame rate mode             : Constant

    Frame rate                  : 23.976 (24000/1001) FPS

    Color space                 : YUV

    Chroma subsampling          : 4:2:0

    Bit depth                   : 10 bits

    Bits/(Pixel*Frame)          : 0.016

    Stream size                 : 1.82 GiB (86%)

    Writing library             : x265 2.9:[Windows][GCC 7.1.0][64 bit] 10bit

    Color primaries             : BT.2020

    Transfer characteristics    : PQ

    Matrix coefficients         : BT.2020 non-constant

    Audio

    ID                          : 2

    Format                      : AC-3

    Format/Info                 : Audio Coding 3

    Commercial name             : Dolby Digital

    Codec ID                    : A_AC3

    Duration                    : 1 h 52 min

    Bit rate mode               : Constant

    Bit rate                    : 320 kb/s

    Channel(s)                  : 6 channels

    Channel layout              : L R C LFE Ls Rs

    Sampling rate               : 48.0 kHz

    Frame rate                  : 31.250 FPS (1536 SPF)

    Bit depth                   : 16 bits

    Compression mode            : Lossy

    Stream size                 : 258 MiB (12%)

    Title                       : Surround

    Language                    : English

    Text 

    Language                    : English

    Language                    : English

    Language                    : French

    Language                    : Spanish

    Language                    : French

    Language                    : Spanish

    Default                     : No

    Forced                      : No


    More at ibit.to
    And ibit.uno
    And ibit.ws

    Reviews

    Gets right into the "Internet" part of _Ralph Breaks the Internet_ real early in the piece, and scarcely plods along ever-after. I was surprised that I enjoyed the first _Wreck-It Ralph_ movie, but I was expecting a step down in quality for this one, which I absolutely got. There's still some things to like, and even the core message is an important one we don't see much of, plus i'm sure this will work as a movie for kids, which to be fair is its target demographic, I'm just saying I don't think I'll ever come back to see Ralph break the Internet a second time around. _Final rating:★★½ - Had a lot that appealed to me, didn’t quite work as a whole._

    Comments

    Files

    Ralph Breaks the Internet (2018) x 1600 (2160p) 5.1 x265 10bit Phun Psyz.mkv 2.1 GB

    Stream

    Downloading Seeding Ralph Breaks the Internet (2018) x 1600 (2160p) 5.1 x265 10bit Phun Psyz.mkv from to 0 peers.
    of
    0 b/s / ↗0 b/s