• 4
  • 1
  • 600
  • done
Sponsored Downloadondemand_video
  • Ralph.Breaks.the.Internet.[2018].YG.latino
  • 2.4 GB
  • yerisan710
  • Ralph Breaks Internet 2018 latino
  • Spanish
  • HD
72%

Ralph Breaks the Internet (2018)

  • Family Animation Comedy Fantasy Adventure
  • Video game bad guy Ralph and fellow misfit Vanellope von Schweetz must risk it all by traveling to the World Wide Web in search of a replacement part to save Vanellope's video game, "Sugar Rush." In way over their heads, Ralph and Vanellope rely on the citizens of the internet -- the netizens -- to help navigate their way, including an entrepreneur named Yesss, who is the head algorithm and the heart and soul of trend-making site BuzzzTube.

    expand_more
    English
  • $175,000,000
  • Description

    image

    General

    Complete name                            : Ralph.Breaks.the.Internet.[2018].YG.latino

    Format                                  : MPEG-4

    Format profile                          : Base Media / Version 2

    Codec ID                                : mp42 (mp42/isom/avc1)

    File size                                : 2.44 GiB

    Duration                                : 1 h 39 min

    Overall bit rate mode                    : Variable

    Overall bit rate                        : 3 523 kb/s

    Encoded date                            : UTC 2018-11-24 09:02:30

    Tagged date                              : UTC 2018-11-24 09:02:30

    Writing application                      : TMPGEnc Video Mastering Works 6 Version. 6.2.2.29

    Video

    ID                                      : 2

    Format                                  : AVC

    Format/Info                              : Advanced Video Codec

    Format profile                          : [email protected]
    Format settings                          : CABAC / 6 Ref Frames

    Format settings, CABAC                  : Yes

    Format settings, RefFrames              : 6 frames

    Codec ID                                : avc1

    Codec ID/Info                            : Advanced Video Coding

    Duration                                : 1 h 39 min

    Source duration                          : 1 h 39 min

    Bit rate mode                            : Variable

    Bit rate                                : 3 301 kb/s

    Maximum bit rate                        : 18.0 Mb/s

    Width                                    : 1 280 pixels

    Height                                  : 536 pixels

    Display aspect ratio                    : 2.40:1

    Frame rate mode                          : Constant

    Frame rate                              : 29.970 (30000/1001) FPS

    Standard                                : Component

    Color space                              : YUV

    Chroma subsampling                      : 4:2:0

    Bit depth                                : 8 bits

    Scan type                                : Progressive

    Bits/(Pixel*Frame)                      : 0.161

    Stream size                              : 2.28 GiB (94%)

    Source stream size                      : 2.28 GiB (94%)

    Writing library                          : x264 core 148

    Encoding settings                        : cabac=1 / ref=6 / deblock=1:0:0 / analyse=0x3:0x113 / me=hex / subme=7 / psy=1 / psyrd=1.00:0.00 / mixedref=1 / merange=16 / chromame=1 / trellis=1 / 8x8dct=1 / cqm=1 / deadzone=21,11 / fastpskip=1 / chromaqpoffset=-2 / threads=12 / lookaheadthreads=2 / slicedthreads=0 / slices=1 / nr=0 / decimate=1 / interlaced=0 / minigop=0 / stitchable=1 / constrainedintra=0 / bframes=3 / bpyramid=0 / badapt=1 / bbias=0 / direct=1 / weightb=1 / opengop=0 / weightp=2 / keyint=250 / keyintmin=25 / scenecut=40 / intrarefresh=0 / rclookahead=40 / rc=abr / mbtree=1 / bitrate=3301 / ratetol=1.0 / qcomp=0.60 / qpmin=3 / qpmax=69 / qpstep=4 / vbvmaxrate=18000 / vbvbufsize=18000 / nalhrd=vbr / filler=0 / ip_ratio=1.40 / aq=1:1.00

    Encoded date                            : UTC 2018-11-24 09:02:30

    Tagged date                              : UTC 2018-11-24 09:02:30

    Color range                              : Limited

    Color primaries                          : BT.709

    Transfer characteristics                : BT.709

    Matrix coefficients                      : BT.709

    Codec configuration box                  : avcC

    Audio

    ID                                      : 1

    Format                                  : AC-3

    Format/Info                              : Audio Coding 3

    Commercial name                          : Dolby Digital

    Codec ID                                : ac-3

    Duration                                : 1 h 39 min

    Bit rate mode                            : Constant

    Bit rate                                : 224 kb/s

    Channel(s)                              : 2 channels

    Channel layout                          : L R

    Sampling rate                            : 48.0 kHz

    Frame rate                              : 31.250 FPS (1536 SPF)

    Bit depth                                : 16 bits

    Compression mode                        : Lossy

    Stream size                              : 159 MiB (6%)

    Service kind                            : Complete Main

    Default                                  : Yes

    Alternate group                          : 1

    Encoded date                            : UTC 2018-11-24 09:02:30

    Tagged date                              : UTC 2018-11-24 09:02:30

    image

    image

    Quote:

    __ you can follow me...

    Spanish YG

    Go.! Go.! Go.! Go.!

    :P

    -1337x

    :devil:

    -bt-scene

    :P

    -worldwidetorrents

    :woot:

    -glodls

    PiRATESNEVERDiE!

    We Just go ON and On and On...FOREVER! __


    More at ibit.to
    And ibit.uno
    And ibit.ws

    Reviews

    Gets right into the "Internet" part of _Ralph Breaks the Internet_ real early in the piece, and scarcely plods along ever-after. I was surprised that I enjoyed the first _Wreck-It Ralph_ movie, but I was expecting a step down in quality for this one, which I absolutely got. There's still some things to like, and even the core message is an important one we don't see much of, plus i'm sure this will work as a movie for kids, which to be fair is its target demographic, I'm just saying I don't think I'll ever come back to see Ralph break the Internet a second time around. _Final rating:★★½ - Had a lot that appealed to me, didn’t quite work as a whole._

    Comments

    Files

    Ralph.Breaks.the.Internet.[2018].YG/Movie Inf.txt 4.4 kB
    Ralph.Breaks.the.Internet.[2018].YG/Ralph.Breaks.the.Internet.[2018].YG.latino.jpg 73 kB
    Ralph.Breaks.the.Internet.[2018].YG/Ralph.Breaks.the.Internet.[2018].YG.latino.mkv 2.4 GB

    Stream

    Downloading Seeding Ralph.Breaks.the.Internet.[2018].YG.latino from to 0 peers.
    of
    0 b/s / ↗0 b/s