• 2
  • 1
  • 17
Sponsored Downloadondemand_video
  • Ralph.Breaks.the.Internet.2018.BRRip.XviD.B4ND1T69
  • 813 MB
  • B4ND1T69
  • Ralph Breaks Internet 2018 BRRip XviD B4ND1T69
  • English
  • Divx/Xvid
72%

Ralph Breaks the Internet (2018)

  • Family Animation Comedy Fantasy Adventure
  • Video game bad guy Ralph and fellow misfit Vanellope von Schweetz must risk it all by traveling to the World Wide Web in search of a replacement part to save Vanellope's video game, "Sugar Rush." In way over their heads, Ralph and Vanellope rely on the citizens of the internet -- the netizens -- to help navigate their way, including an entrepreneur named Yesss, who is the head algorithm and the heart and soul of trend-making site BuzzzTube.

    expand_more
    English
  • $175,000,000
  • Description

    Ralph.Breaks.the.Internet.2018.BRRip.XviD.B4ND1T69

    image

    **Directors: Phil Johnston, Rich Moore

    Writers: Phil Johnston (screenplay by), Pamela Ribon (screenplay by)

    Stars: John C. Reilly, Sarah Silverman, Gal Gadot

    Plot/Story:

    Taking place six years after saving the arcade from Turbo's vengeance, the Sugar Rush arcade cabinet has broken, forcing Ralph and Vanellope to travel to the Internet via the newly-installed Wi-Fi router in Litwak's Arcade to retrieve the piece capable of saving the game.

    General

    Complete name : Ralph.Breaks.the.Internet.2018.BRRip.XviD.B4ND1T69.avi

    Format : AVI

    Format/Info : Audio Video Interleave

    File size : 813 MiB

    Duration : 1 h 52 min

    Overall bit rate : 1 010 kb/s

    Subtitles : Yes...Included(HI)

    Video

    ID : 0

    Format : MPEG-4 Visual

    Format profile : Advanced [email protected]
    Format settings, BVOP : 2

    Format settings, QPel : No

    Format settings, GMC : No warppoints

    Format settings, Matrix : Default (H.263)

    Codec ID : XVID

    Codec ID/Hint : XviD

    Duration : 1 h 52 min

    Bit rate : 869 kb/s

    Width : 688 pixels

    Height : 288 pixels

    Display aspect ratio : 2.40:1

    Frame rate : 23.976 (24000/1001) FPS

    Color space : YUV

    Chroma subsampling : 4:2:0

    Bit depth : 8 bits

    Scan type : Progressive

    Compression mode : Lossy

    Bits/(Pixel*Frame) : 0.183

    Stream size : 699 MiB (86%)

    Writing library : XviD 64

    Audio

    ID : 1

    Format : MPEG Audio

    Format version : Version 1

    Format profile : Layer 3

    Codec ID : 55

    Codec ID/Hint : MP3

    Duration : 1 h 52 min

    Bit rate mode : Constant

    Bit rate : 128 kb/s

    Channel(s) : 2 channels

    Sampling rate : 48.0 kHz

    Compression mode : Lossy

    Stream size : 103 MiB (13%)

    Alignment : Aligned on interleaves

    Interleave, duration : 24 ms (0.58 video frame)

    Screenshots:**
    image
    image
    image
    image
    image
    image
    image
    image
    **
    Please Seed For As Long As Possible

    Or At Least 1:1 Ratio...Thanks

    Enjoy Peeps**


    More at ibit.to
    And ibit.uno
    And ibit.ws

    Reviews

    Gets right into the "Internet" part of _Ralph Breaks the Internet_ real early in the piece, and scarcely plods along ever-after. I was surprised that I enjoyed the first _Wreck-It Ralph_ movie, but I was expecting a step down in quality for this one, which I absolutely got. There's still some things to like, and even the core message is an important one we don't see much of, plus i'm sure this will work as a movie for kids, which to be fair is its target demographic, I'm just saying I don't think I'll ever come back to see Ralph break the Internet a second time around. _Final rating:★★½ - Had a lot that appealed to me, didn’t quite work as a whole._

    Comments

    Files

    1337x text file.txt 100 B
    Downloaded from katcr.co.txt 100 B
    Ralph.Breaks.the.Internet.2018.BRRip.XviD.B4ND1T69.srt 172 kB
    Ralph.Breaks.the.Internet.2018.BRRip.XviD.B4ND1T69.avi 813 MB

    Stream

    Downloading Seeding Ralph.Breaks.the.Internet.2018.BRRip.XviD.B4ND1T69 from to 0 peers.
    of
    0 b/s / ↗0 b/s