• 49
  • 4
  • 7,395
  • done
Sponsored Downloadondemand_video
72%

Ralph Breaks the Internet (2018)

  • Family Animation Comedy Fantasy Adventure
  • Video game bad guy Ralph and fellow misfit Vanellope von Schweetz must risk it all by traveling to the World Wide Web in search of a replacement part to save Vanellope's video game, "Sugar Rush." In way over their heads, Ralph and Vanellope rely on the citizens of the internet -- the netizens -- to help navigate their way, including an entrepreneur named Yesss, who is the head algorithm and the heart and soul of trend-making site BuzzzTube.

    expand_more
    English
  • $175,000,000
  • Description

    image

    General

    Complete name : Ralph Breaks the Internet (2018) 720p HDRip x264 AAC by Full4movies.mkv

    Format : Matroska

    Format version : Version 4 / Version 2

    File size : 859 MiB

    Duration : 1 h 51 min

    Overall bit rate : 1 080 kb/s

    Movie name : www.Full4movies.co

    Encoded date : UTC 2018-12-30 07:18:46

    Writing application : mkvmerge v8.1.0 ('Psychedelic Postcard') 64bit

    Writing library : libebml v1.3.1 + libmatroska v1.4.2

    Video

    ID : 1

    Format : AVC

    Format/Info : Advanced Video Codec

    Format profile : [email protected]
    Format settings, CABAC : Yes

    Format settings, RefFrames : 4 frames

    Codec ID : V_MPEG4/ISO/AVC

    Duration : 1 h 51 min

    Bit rate : 1 003 kb/s

    Width : 1 280 pixels

    Height : 536 pixels

    Display aspect ratio : 2.40:1

    Frame rate mode : Constant

    Frame rate : 25.000 FPS

    Color space : YUV

    Chroma subsampling : 4:2:0

    Bit depth : 8 bits

    Scan type : Progressive

    Bits/(Pixel*Frame) : 0.058

    Stream size : 794 MiB (92%)

    Writing library : x264 core 155 r2901 7d0ff22

    Default : Yes

    Forced : No

    Color range : Limited

    Color primaries : BT.601 PAL

    Transfer characteristics : BT.709

    Matrix coefficients : BT.601

    Audio

    ID : 2

    Format : AAC

    Format/Info : Advanced Audio Codec

    Format profile : LC

    Codec ID : A_AAC

    Duration : 1 h 51 min

    Bit rate : 80.2 kb/s

    Channel(s) : 2 channels

    Channel positions : Front: L R

    Sampling rate : 44.1 kHz

    Frame rate : 43.066 FPS (1024 SPF)

    Compression mode : Lossy

    Delay relative to video : -23 ms

    Stream size : 63.8 MiB (7%)

    Language : English

    Default : Yes

    Forced : No

    Screen Shoots
    image


    More at ibit.to
    And ibit.uno
    And ibit.ws

    Reviews

    Gets right into the "Internet" part of _Ralph Breaks the Internet_ real early in the piece, and scarcely plods along ever-after. I was surprised that I enjoyed the first _Wreck-It Ralph_ movie, but I was expecting a step down in quality for this one, which I absolutely got. There's still some things to like, and even the core message is an important one we don't see much of, plus i'm sure this will work as a movie for kids, which to be fair is its target demographic, I'm just saying I don't think I'll ever come back to see Ralph break the Internet a second time around. _Final rating:★★½ - Had a lot that appealed to me, didn’t quite work as a whole._

    Comments

    Files

    Ralph Breaks the Internet (2018) 720p HDRip x264 AAC by Full4movies.mkv 859 MB

    Stream

    Downloading Seeding Ralph Breaks the Internet (2018) 720p HDRip x264 AAC by Full4movies from to 0 peers.
    of
    0 b/s / ↗0 b/s